Welcome Guest ( Log In | Register )

> Releases Upload / Добавление релизов

Добавить релиз тут / Click here to add release
Рекомендованные обменники / Recommended file shares

 
Reply to this topicStart new topic
> Humanart - (Further) Into The Depths (2019), Black Metal
post Sep 10 2019, 17:51:30
Post #1

Правь статус, ####!111
**************
Group: Металариец
Posts: 18,559
Releases: 12552
From: Г.Харьков
On Forums: 7 years 4 months
Thanks: 212706 time(s)
Unknown


(IMG:http://metalarea.org/images/audiocovers/2019_Sep/acov_tid327199_thumb.jpg)

*Artist: Humanart
*Album: (Further) Into The Depths
*Year: 2019
*Genre: Black Metal
*Country: Portugal (IMG:http://metalarea.org/forum/style_images/flags/Portugal.png)
*Format: mp3@CBR320kbps
*Size: 93MB

Tracklist:
1. Opening the Gates 02:35
2. Underground Slut 04:11
3. Lodge of Filth 05:15
4. Victorious Path 06:53
5. Invocation 57 05:39
6. Iron Cross 04:55
7. Nefilim 03:45
8. Black Crusade 06:07
******************************
Total playing time: 39:20




Extended info
Sathronus Vocals
See also: ex-Sonneillon BM, ex-Mavorte
JJ Guitars (lead) (1998-present)
Fareal Guitars (rhythm) (2014-present)


Technical info
(IMG:http://metalarea.org/images/spectrogram/2019_Sep/64e0b5221943907d616f14dd5a0f0a64.png)
Input File: 03 - Lodge of Filth.mp3
Channels : 2
Sample Rate : 44100
Precision : 16-bit
Duration : 00:05:16.62 = 13963118 samples = 23746.8 CDDA sectors
File Size : 13.0M
Bit Rate : 329k
Sample Encoding: MPEG audio (layer I, II or III)
Comments :
Title=Lodge of Filth
Artist=Humanart
Album=(Further) Into the Depths
Tracknumber=3
Year=2019
Genre=Black Metal
Discnumber=1



Register


Go to the top of the page
  Insert nick Quick quote
+Quote Post

Reply to this topicStart new topic
2 User(s) are reading this topic (2 Guests and 0 Anonymous Users)
0 Members:

 



- Lo-Fi Version Support form
Copyrights and abuse reports form
Time is now: 20th September 2019 - 07:04:06