Welcome Guest ( Log In | Register )

> Releases Upload / Добавление релизов

Добавить релиз тут / Click here to add release
Рекомендованные обменники / Recommended file shares

> Ifernach - Skin Stone Blood Bone (2019), Black Metal
post Sep 10 2019, 18:58:42
Post #1


Group Icon
Group: Curation team
Posts: 1,859
Releases: 142
On Forums: 12 years 11 months
Thanks: 14110 time(s)
Russian Federation


(IMG:http://metalarea.org/images/audiocovers/2019_Sep/acov_tid327200_thumb.jpg)

*Artist: Ifernach
*Album: Skin Stone Blood Bone
*Year: 2019
*Genre: Black Metal
*Country: Canada (IMG:http://metalarea.org/forum/style_images/flags/Canada.png)
*Format: mp3@CBR320kbps
*Size: 90MB

Tracklist:
1. Manifestation of the Horned Beast at Dusk 4:21
2. Following Elk Blood 1:44
3. Death of the Son (Akaia) 3:27
4. Gutfeast under a Blood Moon 5:05
5. Gespegewagi Matnaggewinu 2:47
6. I Shall Reborn from the Cremated Bone Ashes 2:44
7. Daincing in the Skyworld 4:15
8. Infernal Journeys of the Medecine Man 1:37
9. Cosmic Pillars in Algonkian Darkness 4:19
10. The Dark Diviner 9:03
******************************
Total playing time: 39:22

(IMG:http://metalarea.org/images/youtube.png)

Extended info


Technical info
(IMG:http://metalarea.org/images/spectrogram/2019_Sep/82cbb678b21bef9bbc265de5df91e3d0.png)
Input File: 03. Death of the Son (Akaia).mp3
Channels : 2
Sample Rate : 44100
Precision : 16-bit
Duration : 00:03:27.29 = 9141621 samples = 15547 CDDA sectors
File Size : 8.30M
Bit Rate : 320k
Sample Encoding: MPEG audio (layer I, II or III)
Comments :
Title=Death of the Son (Akaia)
Artist=Ifernach
Album=Skin Stone Blood Bone
Tracknumber=03/10
Year=2019
Genre=Black Metal



Register


Go to the top of the page
  Insert nick Quick quote
+Quote Post
 
Start new topic
Replies (1 - 2)
post Sep 15 2019, 01:09:57
Post #2

Правь статус, ####!111
**************
Group: Металариец
Posts: 3,867
Releases: 945
From: Brazil
On Forums: 7 years 7 months
Thanks: 35077 time(s)
Brazil


A reader wrote on my blog, where I shared this release. ''Haha, this is the rip that i did with my boombox plugged into the back of my computer with an Aux cable. I have since then made a much better copy, with louder volume and clearer audio...''

Here is the upload link for the better version that he made,
Register

sounds much better indeed


Go to the top of the page
  Insert nick Quick quote
+Quote Post
post Sep 15 2019, 09:35:27
Post #3


Group Icon
Group: Curation team
Posts: 1,859
Releases: 142
On Forums: 12 years 11 months
Thanks: 14110 time(s)
Russian Federation


The links were replaced with the better version.


Go to the top of the page
  Insert nick Quick quote
+Quote Post

Reply to this topicStart new topic
1 User(s) are reading this topic (1 Guests and 0 Anonymous Users)
0 Members:

 



- Lo-Fi Version Support form
Copyrights and abuse reports form
Time is now: 20th September 2019 - 06:15:07