Welcome Guest ( Log In | Register )

> Releases Upload / Добавление релизов

Добавить релиз тут / Click here to add release
Рекомендованные обменники / Recommended file shares

 
Reply to this topicStart new topic
> Damien - Beyond Apathy (2011), Heavy Metal
post Sep 10 2019, 20:01:25
Post #1

21st Century Schizoid Man
**************
Group: Металариец
Posts: 5,994
Releases: 73
From: Moscow
On Forums: 11 years 4 months
Thanks: 4678 time(s)
Russian Federation


(IMG:http://metalarea.org/images/audiocovers/2019_Sep/acov_tid327202_thumb.jpg)

*Artist: Damien
*Album: Beyond Apathy
*Year: 2011
*Genre: Heavy Metal
*Country: United States (IMG:http://metalarea.org/forum/style_images/flags/United%20States.png)
*Format: mp3@CBR320kbps
*Size: 115MB

Tracklist:
1. Alive 04:46
2. Beyond Apathy 04:12
3. Justine & Juliette 04:26
4. With a Smile 03:52
5. Liberty 04:15
6. Breathe 06:31
7. Beltane Fire 04:11
8. Living Dead 03:50
9. The Shaman 05:51
10. Sweet Polly 04:23
11. Electrosplatter 03:54
******************************
Total playing time: 50:11

(IMG:http://metalarea.org/images/youtube.png)

Extended info
Randy Mikelson: Vocals
Chuck Stohl: Guitars
Kevin Kekes: Bass
Johnny Cappelletty: Drums, backing vocals


Technical info
(IMG:http://metalarea.org/images/spectrogram/2019_Sep/8bc8e2eed794444ec2e0b5f653166cde.png)
Input File: 01. Alive.mp3
Channels : 2
Sample Rate : 44100
Precision : 16-bit
Duration : 00:04:46.60 = 12638928 samples = 21494.8 CDDA sectors
File Size : 11.5M
Bit Rate : 321k
Sample Encoding: MPEG audio (layer I, II or III)
Comments :
Title=Alive
Artist=Damien
Album=Beyond Apathy
Tracknumber=01
Year=2011
Genre=Heavy Metal



Register


Go to the top of the page
  Insert nick Quick quote
+Quote Post

Reply to this topicStart new topic
2 User(s) are reading this topic (2 Guests and 0 Anonymous Users)
0 Members:

 



- Lo-Fi Version Support form
Copyrights and abuse reports form
Time is now: 19th September 2019 - 01:24:28