Welcome Guest ( Log In | Register )

> Releases Upload / Добавление релизов

Добавить релиз тут / Click here to add release
Рекомендованные обменники / Recommended file shares

> Rame - Chants To Maim Again (2019), Black Metal
post Sep 10 2019, 20:28:47
Post #1

Правь статус, ####!111
**************
Group: Металариец
Posts: 18,558
Releases: 12552
From: Г.Харьков
On Forums: 7 years 4 months
Thanks: 212699 time(s)
Unknown


(IMG:https://metalarea.org/images/audiocovers/2019_Sep/acov_tid327203_thumb.jpg)

*Artist: Rame
*Album: Chants To Maim Again
*Year: 2019
*Genre: Black Metal
*Country: Russian Federation (IMG:https://metalarea.org/forum/style_images/flags/Russian%20Federation.png)
*Format: mp3@CBR320kbps
*Size: 142MB

Tracklist:
1. Motherwhore
2. The Rame
3. The Ritual Of Soul Burning
4. Until The Light Do Us Part
5. Beings Of Aether
6. Lethe
7. Nausea Of Love
8. Semidemon
9. Other Side
10. Nav’ The Everlasting
11. Under The Ill-fated Star
******************************
Total playing time: 1:07:41




Extended info
Exile (guitars, bass, vocals, lyrics)
Demonoir (drums, synths, sound production)


Technical info
(IMG:https://metalarea.org/images/spectrogram/2019_Sep/b9f6a0f04cb5ff577f8185f86563f2d1.png)
Input File: 05. Beings of Aether.mp3
Channels : 2
Sample Rate : 44100
Precision : 16-bit
Duration : 00:07:13.58 = 19120922 samples = 32518.6 CDDA sectors
File Size : 17.4M
Bit Rate : 321k
Sample Encoding: MPEG audio (layer I, II or III)
Comments :
Title=Beings of Aether
Artist=Rame
Album=Chants to Maim Again
Tracknumber=5/11
Year=2019
Genre=9
Discnumber=1/1



Register


Go to the top of the page
  Insert nick Quick quote
+Quote Post
 
Start new topic
Replies (1 - 2)
post Sep 11 2019, 10:15:29
Post #2

Group: Подсевший
Posts: 41
Releases: 2
On Forums: 11 years 5 months
Thanks: 48 time(s)
Russian Federation


по материалу посредственный мелоблэкдэс. записано более-менее.


Thanks:
Go to the top of the page
  Insert nick Quick quote
+Quote Post
post Sep 15 2019, 16:46:18
Post #3

Маньяк
**********
Group: Металариец
Posts: 1,113
Releases: 0
From: Canada
On Forums: 6 years 10 months
Thanks: 675 time(s)
Canada


Complete "Chants To Maim Again"

Go to the top of the page
  Insert nick Quick quote
+Quote Post

Reply to this topicStart new topic
2 User(s) are reading this topic (2 Guests and 0 Anonymous Users)
0 Members:

 



- Lo-Fi Version Support form
Copyrights and abuse reports form
Time is now: 20th September 2019 - 06:16:12