Welcome Guest ( Log In | Register )

> Releases Upload / Добавление релизов

Добавить релиз тут / Click here to add release
Рекомендованные обменники / Recommended file shares

> Fever Nest - A Circle Of Pain, A Circle Of Suffering [demo] (2019), Black Metal
post Sep 10 2019, 21:11:05
Post #1

the faceless one
Group Icon
Group: S-moderation team
Posts: 9,229
Releases: 1885
On Forums: 11 years 1 month
Thanks: 111023 time(s)
Russian Federation


(IMG:http://metalarea.org/images/audiocovers/2019_Sep/acov_tid327205_thumb.jpg)

*Artist: Fever Nest
*Album: A Circle Of Pain, A Circle Of Suffering [demo]
*Year: 2019
*Genre: Black Metal
*Country: United States (IMG:http://metalarea.org/forum/style_images/flags/United%20States.png)
*Format: mp3@VBR263kbps
*Size: 49MB

Tracklist:
1. Circle Of Suffering 03:52
2. Twelve Candles 01:57
3. Singed And Black 03:09
4. Behold The Pale Horse 01:48
5. Deathbag 02:45
6. No Prayer Dare Penetrate 03:10
7. Deep In The Woods (The Birthday Party Cover) 04:40
8. Holiday In Cambodia (Dead Kennedys Cover) 04:31
******************************
Total playing time: 25:52



Extended info
Knife Vision,
limited to 50 copies.

Неизданный материал, датированный 2014 годом. Дикий, грязный и сырой.


Technical info
(IMG:http://metalarea.org/images/spectrogram/2019_Sep/31f83d89b32220e348af298ccd5bb738.png)
Input File: 03 Singed And Black.mp3
Channels : 2
Sample Rate : 44100
Precision : 16-bit
Duration : 00:03:08.89 = 8330093 samples = 14166.8 CDDA sectors
File Size : 5.75M
Bit Rate : 243k
Sample Encoding: MPEG audio (layer I, II or III)
Comments :
Title=Singed And Black
Artist=Fever Nest
Album=A Circle Of Pain, A Circle Of Suffering
Tracknumber=03/8
Year=2019
Genre=Black Metal



Register


Go to the top of the page
  Insert nick Quick quote
+Quote Post
 
Start new topic
Replies (1 - 3)
post Sep 11 2019, 07:38:37
Post #2

Detective Godzilla
Group Icon
Group: Moderation team
Posts: 3,078
Releases: 258
On Forums: 8 years 7 months
Thanks: 8939 time(s)
Russian Federation


Knife Vision как всегда хороши
Go to the top of the page
  Insert nick Quick quote
+Quote Post
post Sep 11 2019, 11:19:08
Post #3

Два Литра
**
Group: Завсегдатай
Posts: 186
Releases: 0
On Forums: 3 months 2 weeks
Thanks: 79 time(s)
Unknown


ЦИТАТА(Daale @ Sep 11 2019, 07:38:37) *
Knife Vision как всегда хороши


плюсую, отличный лэйбл.
По сабжу - очень мрачный материал получился и два необычных кавера-довеска.
Go to the top of the page
  Insert nick Quick quote
+Quote Post
post Sep 11 2019, 22:41:01
Post #4

ы.
**************
Group: Металариец
Posts: 2,986
Releases: 0
On Forums: 3 years 7 months
Thanks: 1810 time(s)
Unknown


Сикоморы?)
Go to the top of the page
  Insert nick Quick quote
+Quote Post

Reply to this topicStart new topic
2 User(s) are reading this topic (2 Guests and 0 Anonymous Users)
0 Members:

 



- Lo-Fi Version Support form
Copyrights and abuse reports form
Time is now: 20th September 2019 - 07:01:45