Welcome Guest ( Log In | Register )

> Releases Upload / Добавление релизов

Добавить релиз тут / Click here to add release
Рекомендованные обменники / Recommended file shares

> Wolftopia - I Am The Storm [ep] (2019), Melodic Death Metal
post Sep 10 2019, 21:17:31
Post #1

Правь статус, ####!111
**************
Group: Металариец
Posts: 18,519
Releases: 12530
From: Г.Харьков
On Forums: 7 years 4 months
Thanks: 212373 time(s)
Unknown


(IMG:https://metalarea.org/images/audiocovers/2019_Sep/acov_tid327206_thumb.jpg)

*Artist: Wolftopia
*Album: I Am The Storm [ep]
*Year: 2019
*Genre: Melodic Death Metal
*Country: Finland (IMG:https://metalarea.org/forum/style_images/flags/Finland.png)
*Format: mp3@CBR320kbps
*Size: 23MB

Tracklist:
01. I Am the Storm 04:58
02. May He Sever the Shadow 04:48
******************************
Total playing time: 9:46



Extended info
Aleksander Okhotnikov - Vocals & guitars
Tom Israels - Drums
Tim Reus - Bass


Technical info
(IMG:https://metalarea.org/images/spectrogram/2019_Sep/7edac445eea4d46f76efd03b3eb9a8c5.png)
Input File: 01 - I Am the Storm.mp3
Channels : 2
Sample Rate : 44100
Precision : 16-bit
Duration : 00:04:58.07 = 13145019 samples = 22355.5 CDDA sectors
File Size : 12.0M
Bit Rate : 323k
Sample Encoding: MPEG audio (layer I, II or III)
Comments :
Title=I Am the Storm
Artist=Wolftopia
Album=I Am the Storm
Tracknumber=1
Year=2019-05-03
Genre=Metal
Discnumber=1



Register


Go to the top of the page
  Insert nick Quick quote
+Quote Post
 
Start new topic
Replies (1 - 2)
post Sep 12 2019, 12:33:33
Post #2

Правь статус, ####!111
**************
Group: Металариец
Posts: 2,610
Releases: 8
From: Dnipro
On Forums: 11 years 2 months
Thanks: 799 time(s)
Ukraine


Жаль что так мало, некий замес между Kalmah и Catamenia.
Go to the top of the page
  Insert nick Quick quote
+Quote Post
post Sep 15 2019, 18:02:22
Post #3

Ёлд ХеллоВяйне
Group Icon
Group: V.I.P
Posts: 27,752
Releases: 132
From: Питер
On Forums: 12 years 10 months
Thanks: 15694 time(s)
Russian Federation


Неплохо, но слишком стандартно. Может, на полноформате что толковое будет.
Go to the top of the page
  Insert nick Quick quote
+Quote Post

Reply to this topicStart new topic
1 User(s) are reading this topic (1 Guests and 0 Anonymous Users)
0 Members:

 



- Lo-Fi Version Support form
Copyrights and abuse reports form
Time is now: 19th September 2019 - 01:01:33