Welcome Guest ( Log In | Register )

> Releases Upload / Добавление релизов

Добавить релиз тут / Click here to add release
Рекомендованные обменники / Recommended file shares

 
Reply to this topicStart new topic
> Syrictus - Anticosmia (2019), Death Metal
post Sep 10 2019, 23:45:27
Post #1

Правь статус, ####!111
**************
Group: Металариец
Posts: 18,557
Releases: 12552
From: Г.Харьков
On Forums: 7 years 4 months
Thanks: 212699 time(s)
Unknown


(IMG:https://metalarea.org/images/audiocovers/2019_Sep/acov_tid327209_thumb.jpg)

*Artist: Syrictus
*Album: Anticosmia
*Year: 2019
*Genre: Death Metal
*Country: United States (IMG:https://metalarea.org/forum/style_images/flags/United%20States.png)
*Format: mp3@CBR320kbps
*Size: 138MB

Tracklist:
1. Acamar 03:33
2. Dawn of the Serpent's Vice 06:30
3. Gray Echelon 06:50
4. Destacatyla 05:29
5. Bootes Void Manifestations 05:23
6. Shadowing Portent 04:36
7. The Chaos Ingurgitant 05:25
8. Demonwarp 10:41
9. Wretched Fabric of Space and Time 04:18
10. Anticosmia 06:05
******************************
Total playing time: 58:50




Extended info
Erik Stenglein Vocals, Guitars, Bass, Drums
See also: Ara, Northless, ex-Half Gorilla, ex-Outcome of Attica, Captivity (USA), ex-Shroud of Despondency (live), ex-Protestant, ex-Chaos Diaries, ex-For Death or Glory, ex-Never Forgive Never Forget, ex-Suffer in Truth, ex-Under The Bridges of Umea


Technical info
(IMG:https://metalarea.org/images/spectrogram/2019_Sep/7dc672f1e406874ffcb75e47d8363aa7.png)
Input File: 03. Grey Echelon.mp3
Channels : 2
Sample Rate : 44100
Precision : 16-bit
Duration : 00:06:50.70 = 18111694 samples = 30802.2 CDDA sectors
File Size : 16.8M
Bit Rate : 327k
Sample Encoding: MPEG audio (layer I, II or III)
Comments :
Title=Grey Echelon
Artist=Syrictus
Album=Anticosmia
Tracknumber=03
Year=2019
Genre=Metal



Register


Go to the top of the page
  Insert nick Quick quote
+Quote Post

Reply to this topicStart new topic
1 User(s) are reading this topic (1 Guests and 0 Anonymous Users)
0 Members:

 



- Lo-Fi Version Support form
Copyrights and abuse reports form
Time is now: 20th September 2019 - 06:14:51