Welcome Guest ( Log In | Register )

> 

Здесь релизы с живыми прямыми ссылками на lossless

> Haunter - Sacramental Death Qualia (2019), Black Metal
post Sep 11 2019, 00:09:32
Post #1

Правь статус, ####!111
**************
Group: Металариец
Posts: 4,231
Releases: 1145
From: Brazil
On Forums: 8 years 4 weeks
Thanks: 42703 time(s)
Brazil


(IMG:https://metalarea.org/images/audiocovers/2019_Sep/acov_tid327210_thumb.jpg)

*Artist: Haunter
*Album: Sacramental Death Qualia
*Year: 2019
*Genre: Black Metal
*Country: United States (IMG:https://metalarea.org/forum/style_images/flags/United%20States.png)
*Format: mp3@CBR320kbps
*Size: 107MB

Tracklist:
1. Dispossessed Phrenic Antiquity 09:28
2. Spoils Vultured upon Sole Deletion 09:52
3. Abdication 07:43
4. Subversion of a Heathen Tongue 07:09
5. Sacramental Death Qualia 12:02
******************************
Total playing time: 46:14



Extended info
I, Voidhanger Records

Based in Texas and active since 2013, HAUNTER have diligently permeated their way into the metal underground due to their intense live activity and body of work. Their releases include the acclaimed full-length debut, “Thrinodίa” (2016) and splits with Crawl, Sovereign and Black Vice. Indomitable with a maturity, aggression and complexity, “Sacramental Death Qualia” is the expected step forward in terms of both expressivity and personality. This release is going to impose them on the same audience of bands like Gorguts, Immolation and early Opeth: bands that become reminiscent throughout the album.

Mastered by Brendan Sloan (Convulsing), “Sacramental Death Qualia” is a true experience of conscience's awakening; a progressive album where the unrelenting violence of death metal and the obscurity of black metal are sewn together by mind-bending, complex arrangements that are the epitome of change. HAUNTER's compositions constantly morph and evolve with never ending creativity, chasing forms at the same time ferocious and elegant, destructive and gentle. Acoustic passages of ethereal beauty, where delicate guitars draw melancholic and autumnal melodies counterbalance the band's untamable fury during the most frenetic moments.

Elijah Tamu's (Abyssal, Temple Nightside, Panegyrist) visionary cover painting enriches an album of great emotional power that impacts the eyes with the same intensity as “Sacramental Death Qualia.”


Bradley Tiffin - Guitar, Bass, Keys, Vocals
Enrique Bonilla - Guitar
Mark Cruz - Drums

Enrique Bonilla and Bradley Tiffin - Lyrics

Wesley Powers - Drum Production
Bradley Tiffin - Producer, Mixing
Brendan Sloan - Mastering
Elijah Tamu - Cover Artwork
Oscar Moreno - Photography
Simon Santana - Artwork
Clutching Sanity - Artwork
Abriel Carpio - Artwork
Francesco Gemelli - Art Direction and Layout


Technical info
(IMG:https://metalarea.org/images/spectrogram/2019_Sep/2ddfa938c715bba3e1331a188a2cc57c.png)
Input File: 04 Subversion of a Heathen Tongue.mp3
Channels : 2
Sample Rate : 44100
Precision : 16-bit
Duration : 00:07:09.09 = 18922649 samples = 32181.4 CDDA sectors
File Size : 17.2M
Bit Rate : 320k
Sample Encoding: MPEG audio (layer I, II or III)
Comments :
Title=Subversion of a Heathen Tongue
Artist=Haunter
Album=Sacramental Death Qualia
Tracknumber=4
Year=2019



Register


Go to the top of the page
  Insert nick Quick quote
+Quote Post
 
Start new topic
Replies (1 - 6)
post Sep 11 2019, 07:19:27
Post #2

De Mysteriis Dom Sathanas
**************
Group: Металариец
Posts: 3,829
Releases: 63
From: Doom
On Forums: 11 years 7 months
Thanks: 3237 time(s)
Russian Federation


Crust Punk (early), Black Metal (later) (IMG:style_emoticons/default/1488.gif)
Go to the top of the page
  Insert nick Quick quote
+Quote Post
post Sep 11 2019, 11:08:27
Post #3

Два Литра
**
Group: Завсегдатай
Posts: 186
Releases: 0
On Forums: 8 months 3 weeks
Thanks: 88 time(s)
Unknown


Мешанина из музыкальных "кусков"
Вообще не моё...


Thanks:
Go to the top of the page
  Insert nick Quick quote
+Quote Post
post Nov 3 2019, 13:34:51
Post #4

Crush! Kill! Destroy!
**************
Group: Металариец
Posts: 5,273
Releases: 15
From: Kaliningrad
On Forums: 12 years 3 months
Thanks: 4857 time(s)
Russian Federation


Прямо вот очень ОК!
А лося нет ни у кого?
Go to the top of the page
  Insert nick Quick quote
+Quote Post
post Nov 3 2019, 13:55:38
Post #5


Group Icon
Group: S-moderation team
Posts: 14,304
Releases: 1439
From: Zagreb
On Forums: 9 years 3 days
Thanks: 62495 time(s)
Croatia


Register


Thanks:
Go to the top of the page
  Insert nick Quick quote
+Quote Post
post Nov 3 2019, 14:37:10
Post #6

Crush! Kill! Destroy!
**************
Group: Металариец
Posts: 5,273
Releases: 15
From: Kaliningrad
On Forums: 12 years 3 months
Thanks: 4857 time(s)
Russian Federation


QUOTE(Borderline1991 @ Nov 3 2019, 14:55:38) *


Благодарствую!
Go to the top of the page
  Insert nick Quick quote
+Quote Post
post Nov 20 2019, 03:18:27
Post #7

Три Литра
***
Group: Завсегдатай
Posts: 231
Releases: 0
On Forums: 12 years 10 months
Thanks: 165 time(s)
Russian Federation


Один из лучших альбомов в этом году, как по мне (IMG:style_emoticons/default/m1234.gif)

На бендкэмпе NYP, добавляйте в коллекцию
Go to the top of the page
  Insert nick Quick quote
+Quote Post

Reply to this topicStart new topic
1 User(s) are reading this topic (1 Guests and 0 Anonymous Users)
0 Members:

 



- Lo-Fi Version Support form
Copyrights and abuse reports form
Time is now: 29th February 2020 - 14:02:00