Welcome Guest ( Log In | Register )

> Releases Upload / Добавление релизов

Добавить релиз тут / Click here to add release
Рекомендованные обменники / Recommended file shares

> Kirchenbrand - Antihumanismus (2019), Black Metal (D)
post Sep 11 2019, 00:09:50
Post #1

Правь статус, ####!111
**************
Group: Металариец
Posts: 18,519
Releases: 12530
From: Г.Харьков
On Forums: 7 years 4 months
Thanks: 212369 time(s)
Unknown


(IMG:https://metalarea.org/images/audiocovers/2019_Sep/acov_tid327211_thumb.jpg)

*Artist: Kirchenbrand
*Album: Antihumanismus
*Year: 2019
*Genre: Black Metal
*Country: Austria (IMG:https://metalarea.org/forum/style_images/flags/Austria.png)
*Format: mp3@CBR320kbps
*Size: 75MB

Tracklist:
01. Kein Herz für Menschen
02. Manifest
03. Missgeburt
04. Antihumanismus
05. Requiem
06. Die Welt hat Zähne
07. Anders
08. Hassfresser
******************************
Total playing time: 37:50



Extended info
Christcrusher Bass, Guitars, Vocals (2007-2010), All instruments, Vocals (2010-2012, 2017-present)
See also: Schädelberg, ex-Thy Nemesis



Technical info
(IMG:https://metalarea.org/images/spectrogram/2019_Sep/30b9438176f30ceadfc9ba340fd9564b.png)
Input File: 04. Antihumanismus.mp3
Channels : 2
Sample Rate : 44100
Precision : 16-bit
Duration : 00:04:27.07 = 11777655 samples = 20030 CDDA sectors
File Size : 10.7M
Bit Rate : 322k
Sample Encoding: MPEG audio (layer I, II or III)
Comments :
Title=Antihumanismus
Artist=Kirchenbrand
Album=Antihumanismus
Tracknumber=4/8
Year=2019
Genre=9
Discnumber=1/1



Register


Go to the top of the page
  Insert nick Quick quote
+Quote Post
 
Start new topic
Replies (1 - 3)
post Sep 11 2019, 06:16:44
Post #2

Group: Подсевший
Posts: 41
Releases: 2
On Forums: 11 years 5 months
Thanks: 48 time(s)
Russian Federation


абсолютно бездарное сведение отбивает желание слушать


Go to the top of the page
  Insert nick Quick quote
+Quote Post
post Sep 11 2019, 11:20:33
Post #3

Два Литра
**
Group: Завсегдатай
Posts: 186
Releases: 0
On Forums: 3 months 2 weeks
Thanks: 79 time(s)
Unknown


Под достаточно стрёмной облогой скрывается такая же музыка


Go to the top of the page
  Insert nick Quick quote
+Quote Post
post Sep 11 2019, 11:47:34
Post #4

Group: Подсевший
Posts: 49
Releases: 0
On Forums: 3 years 1 month
Thanks: 6 time(s)
Unknown


ЦИТАТА(Wizard_in_Black @ Sep 11 2019, 11:20:33) *
Под достаточно стрёмной облогой скрывается такая же музыка

мерзкая бабища на облоге и музон такой же


Go to the top of the page
  Insert nick Quick quote
+Quote Post

Reply to this topicStart new topic
2 User(s) are reading this topic (2 Guests and 0 Anonymous Users)
0 Members:

 



- Lo-Fi Version Support form
Copyrights and abuse reports form
Time is now: 19th September 2019 - 00:56:39