Welcome Guest ( Log In | Register )

> Releases Upload / Добавление релизов

Добавить релиз тут / Click here to add release
Рекомендованные обменники / Recommended file shares

> Warheadd - Imminent Destruction [ep] (2019), Heavy/Thrash Metal
post Sep 11 2019, 01:36:11
Post #1

Правь статус, ####!111
**************
Group: Металариец
Posts: 18,521
Releases: 12539
From: Г.Харьков
On Forums: 7 years 4 months
Thanks: 212377 time(s)
Unknown


(IMG:https://metalarea.org/images/audiocovers/2019_Sep/acov_tid327212_thumb.jpg)

*Artist: Warheadd
*Album: Imminent Destruction [ep]
*Year: 2019
*Genre: Heavy/Thrash Metal
*Country: United States (IMG:https://metalarea.org/forum/style_images/flags/United%20States.png)
*Format: mp3@CBR320kbps
*Size: 50MB

Tracklist:
01. Weapon X 05:05
02. The Beast 05:02
03. Excalibur 03:03
04. Thrill Kill 05:04
05. Walls 04:58
******************************
Total playing time: 23:12



Extended info
Nick Viviano- Lead/Rhythm guitar and vocals
Billy Aichhorn- Lead/Rhythm guitar and backup vocals
Christian Stickman- Drums
Alex Smick- Bass guitar



Technical info
(IMG:https://metalarea.org/images/spectrogram/2019_Sep/a9a690c6a7b0838d17dbe44c56f3d72e.png)
Input File: 02. The Beast.mp3
Channels : 2
Sample Rate : 44100
Precision : 16-bit
Duration : 00:05:02.20 = 13327196 samples = 22665.3 CDDA sectors
File Size : 12.2M
Bit Rate : 323k
Sample Encoding: MPEG audio (layer I, II or III)
Comments :
Title=The Beast
Artist=Warheadd
Album=Imminent Destruction
Tracknumber=2/5
Year=2019
Genre=9
Discnumber=1/1



Register


Go to the top of the page
  Insert nick Quick quote
+Quote Post
 
Start new topic
Replies (1 - 1)
post Sep 11 2019, 12:34:45
Post #2

MDM-Thrash Metal
**************
Group: Металариец
Posts: 8,684
Releases: 603
From: Одесса
On Forums: 12 years 1 month
Thanks: 17310 time(s)
Ukraine


Ну, треша точно нет, скорее тягучий хеви/стонер.
Go to the top of the page
  Insert nick Quick quote
+Quote Post

Reply to this topicStart new topic
2 User(s) are reading this topic (2 Guests and 0 Anonymous Users)
0 Members:

 



- Lo-Fi Version Support form
Copyrights and abuse reports form
Time is now: 19th September 2019 - 01:38:44