Welcome Guest ( Log In | Register )

> Правила / Rules

Тут только для чтения лежат низкобитрейтные (<192kbps) релизы, для которых есть аналоги в высокобитрейтных форумах.

Here goes (and stand in read only mode) low bitrate releases (<192kbps) which were already replaced by high bitrate releases in corresponding forums.

> Sur Austru - Meteahnă Timpurilor (2019), Atmospheric Folk/Black Metal
post Sep 11 2019, 02:11:02
Post #1

Правь статус, ####!111
**************
Group: Металариец
Posts: 19,829
Releases: 13457
From: Г.Харьков
On Forums: 7 years 7 months
Thanks: 232797 time(s)
Unknown


(IMG:https://metalarea.org/images/audiocovers/2019_Sep/acov_tid327213_thumb.jpg)

*Artist: Sur Austru
*Album: Meteahnă Timpurilor
*Year: 2019
*Genre: Atmospheric Folk/Black Metal
*Country: Romania (IMG:https://metalarea.org/forum/style_images/flags/Romania.png)
*Format: mp3@CBR320kbps
*Size: 108MB

Tracklist:
1. De dincolo de munte 05:59
2. Puhoaielor 06:40
3. Mistuind 05:29
4. Bradul cerbului 06:09
5. Jale 03:29
6. Dor Austru 11:14
7. In timp vernal 05:34
8. Jabracie 07:34
******************************
Total playing time: 52:08




Extended info
Ovidiu Corodan Bass
See also: Grimegod, ex-Negură Bunget
Nadaban Sergiu Drums
Ionut Cadariu Flute
Mihai Florea Guitars
See also: Grimegod, Wisdom's Funeral
Petrică Ionuţescu Traditional Instruments
See also: ex-Negură Bunget, ex-Din Brad (live)
Tibor Kati Vocals, Guitars, Keyboards
See also: Grimegod, Indefiance, ex-Negură Bunget, Feralia, ex-Din Brad (live)
Stefan Zaharescu Vocals, Percussion, Toacă
See also: MG42, ex-Clitgore, ex-DinUmbră, ex-Kistvaen, ex-Sincarnate, ex-Negură Bunget


Technical info
(IMG:https://metalarea.org/images/spectrogram/2019_Sep/76e3d4a4a043f0f8376339e4158afec8.png)
Input File: 03 - Mistuind.mp3
Channels : 2
Sample Rate : 44100
Precision : 16-bit
Duration : 00:05:25.56 = 14357284 samples = 24417.1 CDDA sectors
File Size : 13.0M
Bit Rate : 320k
Sample Encoding: MPEG audio (layer I, II or III)
Comments :
Title=Mistuind
Artist=Sur Austru
Album=Meteahna Timpurilor



Register


Go to the top of the page
  Insert nick Quick quote
+Quote Post
 
Start new topic
Replies (1 - 4)
post Sep 11 2019, 04:54:21
Post #2

i listen to black metal
**************
Group: Металариец
Posts: 2,456
Releases: 129
From: Москва-Лианозово
On Forums: 12 years 11 months
Thanks: 2079 time(s)
Russian Federation


скучно,даже участие в Negură Bunget не помогло.
хотя попробую через неделю переслушать.
Go to the top of the page
  Insert nick Quick quote
+Quote Post
post Sep 11 2019, 11:08:52
Post #3

Маньяк
**********
Group: Металариец
Posts: 1,258
Releases: 0
From: Russian Federation - St.Petersburg
On Forums: 10 years 9 months
Thanks: 297 time(s)
Russian Federation


Ну да, польку еньку под такой фолк конечно не спляшешь,) но сабж однозначно сильный, имхо! (IMG:style_emoticons/default/20.gif)
Go to the top of the page
  Insert nick Quick quote
+Quote Post
post Sep 11 2019, 11:57:45
Post #4

Два Литра
**
Group: Завсегдатай
Posts: 186
Releases: 0
On Forums: 6 months 1 week
Thanks: 85 time(s)
Unknown


Сама по себе музыка получилась атмосферная и даже красивая, немного затянуто но это даже не минус.
Материал в стиле тех же Negura Bunget и Dordeduh
Go to the top of the page
  Insert nick Quick quote
+Quote Post
post Sep 11 2019, 12:03:54
Post #5

Три Литра
***
Group: Завсегдатай
Posts: 213
Releases: 13
On Forums: 12 years 10 months
Thanks: 586 time(s)
Spain


It´s a fake transcode, the real bitrate real is 128kbps


Go to the top of the page
  Insert nick Quick quote
+Quote Post

Причина закрытия (Абигор 12-09-2019): Sur Austru - Meteahna Timpurilor (2019)
Closed TopicStart new topic
1 User(s) are reading this topic (1 Guests and 0 Anonymous Users)
0 Members:

 



- Lo-Fi Version Support form
Copyrights and abuse reports form
Time is now: 12th December 2019 - 10:27:42