Welcome Guest ( Log In | Register )

> И неформату есть предел.

Рэп/хип-хоп/шансон/поп удаляются. Для них есть свои порталы.

> Iggy Pop - Free (2019), Rock
post Sep 11 2019, 10:06:31
Post #1

Литр
*
Group: Подсевший
Posts: 82
Releases: 32
From: DONBASS
On Forums: 7 years 5 months
Thanks: 501 time(s)
Ukraine


(IMG:https://metalarea.org/images/audiocovers/2019_Sep/acov_tid327220_thumb.jpg)

*Artist: Iggy Pop
*Album: Free
*Year: 2019
*Genre: Rock
*Country: United States (IMG:https://metalarea.org/forum/style_images/flags/United%20States.png)
*Format: mp3@CBR320kbps
*Size: 88MB

Tracklist:
01. Free 01:48
02. Loves Missing 04:19
03. Sonali 03:30
04. James Bond 04:31
05. Dirty Sanchez 04:21
06. Glow In The Dark 03:57
07. Page 04:08
08. We Are The People 03:13
09. Do Not Go Gentle Into That Good Night 01:48
10. The Dawn 02:08
******************************
Total playing time: 33:47

http://iggypop.com/

Extended info


Technical info
(IMG:https://metalarea.org/images/spectrogram/2019_Sep/5cd6657bf89df6a478242cd65c93885f.png)
Input File: 04. James Bond.mp3
Channels : 2
Sample Rate : 44100
Precision : 16-bit
Duration : 00:04:31.25 = 11961993 samples = 20343.5 CDDA sectors
File Size : 10.9M
Bit Rate : 323k
Sample Encoding: MPEG audio (layer I, II or III)
Comments :
Title=James Bond
Artist=Iggy Pop
Album=Free
Tracknumber=4
Year=2019
Genre=Punk Rock



Register


Go to the top of the page
  Insert nick Quick quote
+Quote Post
 
Start new topic
Replies (1 - 6)
post Sep 11 2019, 19:26:26
Post #2

Правь статус, ####!111
**************
Group: Металариец
Posts: 2,290
Releases: 0
From: Buffalo
On Forums: 10 years 5 months
Thanks: 1379 time(s)
United States


Батя Энтони Кидиса.


Thanks:
(1) Eisbar,
Go to the top of the page
  Insert nick Quick quote
+Quote Post
post Sep 11 2019, 19:29:27
Post #3

Герберт Уэст
**************
Group: Металариец
Posts: 2,153
Releases: 67
From: Поморье
On Forums: 10 years 3 months
Thanks: 4493 time(s)
Russian Federation


Хороший альбом, с привкусом джаза, я бы сказал. Старичок еще может! (IMG:style_emoticons/default/banana.gif)


Thanks:
Go to the top of the page
  Insert nick Quick quote
+Quote Post
post Sep 11 2019, 22:36:56
Post #4

Мегаманьяк
***********
Group: Металариец
Posts: 1,542
Releases: 0
From: Харьков
On Forums: 9 years 11 months
Thanks: 595 time(s)
Ukraine


Да, годный альбом, интересно звучит в рамках дискографии, хоть и неровный малость. Заметно влияние Blackstar Боуи)
Go to the top of the page
  Insert nick Quick quote
+Quote Post
post Sep 13 2019, 08:36:32
Post #5

Dr.
**************
Group: Металариец
Posts: 5,306
Releases: 0
From: Primorye.ru
On Forums: 8 years 5 months
Thanks: 1080 time(s)
Russian Federation


ЦИТАТА
с привкусом джаза
Leron Thomas (IMG:style_emoticons/default/m1234.gif)


Thanks:
(1) Ghostb,
Go to the top of the page
  Insert nick Quick quote
+Quote Post
post Sep 14 2019, 11:29:56
Post #6

ы.
**************
Group: Металариец
Posts: 2,990
Releases: 0
On Forums: 3 years 7 months
Thanks: 1818 time(s)
Unknown


до этого ни разу не касался творчества, так всякий заводной рок не люблю.
а этот альбом прикольный, заценил прошлый по паре треков, лаконично и атмосферно, буду ценить.
свободный, задумчивый и как в следствие уставший.
хотя и две первых вещи семидесятых заценю, надо знать всю подноготную.


Go to the top of the page
  Insert nick Quick quote
+Quote Post
post Sep 14 2019, 19:44:14
Post #7

Мегаманьяк
***********
Group: Металариец
Posts: 1,542
Releases: 0
From: Харьков
On Forums: 9 years 11 months
Thanks: 595 time(s)
Ukraine


ЦИТАТА(garmonbozia @ Sep 14 2019, 13:29:56) *
хотя и две первых вещи семидесятых заценю, надо знать всю подноготную

Самый топ, очень разные альбомы, кстати.

ЦИТАТА(garmonbozia @ Sep 14 2019, 13:29:56) *
заценил прошлый по паре треков, лаконично и атмосферно, буду ценить

Этот тоже хороший.
Go to the top of the page
  Insert nick Quick quote
+Quote Post

Reply to this topicStart new topic
1 User(s) are reading this topic (1 Guests and 0 Anonymous Users)
0 Members:

 



- Lo-Fi Version Support form
Copyrights and abuse reports form
Time is now: 21st September 2019 - 05:51:18