Welcome Guest ( Log In | Register )

> Releases Upload / Добавление релизов

Добавить релиз тут / Click here to add release
Рекомендованные обменники / Recommended file shares

> Conspiracy - Dehumanized (2019), Thrash Metal
post Sep 11 2019, 10:29:12
Post #1

Правь статус, ####!111
**************
Group: Металариец
Posts: 18,557
Releases: 12552
From: Г.Харьков
On Forums: 7 years 4 months
Thanks: 212699 time(s)
Unknown


(IMG:https://metalarea.org/images/audiocovers/2019_Sep/acov_tid327222_thumb.jpg)

*Artist: Conspiracy
*Album: Dehumanized
*Year: 2019
*Genre: Thrash Metal
*Country: Macedonia (IMG:https://metalarea.org/forum/style_images/flags/Macedonia.png)
*Format: mp3@CBR320kbps
*Size: 93MB

Tracklist:
1. Divinity 03:58
2. Beauty of One 03:21
3. Shadow in the Bone 04:52
4. Scream of Osiris 04:57
5. Damnation 04:23
6. Retribution 04:21
7. Chosen 04:38
8. Everlasting Hope 04:52
9. Shadow in the Bone (acoustic) 04:44
******************************
Total playing time: 40:06



Extended info
Milosh Blagojevic Bass
Ivan D. Drums
Davor Kapac Guitars (lead), Lyrics
Stefan Trajkoski Vocals, Guitars (rhythm)



Technical info
(IMG:https://metalarea.org/images/spectrogram/2019_Sep/c553b20e77e90ac88f8bf7ab80915402.png)
Input File: 03 - Shadow in the Bone.mp3
Channels : 2
Sample Rate : 44100
Precision : 16-bit
Duration : 00:04:51.10 = 12837554 samples = 21832.6 CDDA sectors
File Size : 11.8M
Bit Rate : 326k
Sample Encoding: MPEG audio (layer I, II or III)
Comments :
Title=Shadow in the Bone
Artist=Conspiracy
Album=Dehumanized
Tracknumber=3
Year=2019
Genre=Thrash Metal
Discnumber=1



Register


Go to the top of the page
  Insert nick Quick quote
+Quote Post
 
Start new topic
Replies (1 - 2)
post Sep 11 2019, 20:29:31
Post #2

Правь статус, ####!111
**************
Group: Металариец
Posts: 18,557
Releases: 12552
From: Г.Харьков
On Forums: 7 years 4 months
Thanks: 212699 time(s)
Unknown


Cloud Mail 320
Register


Thanks:
Go to the top of the page
  Insert nick Quick quote
+Quote Post
post Sep 18 2019, 16:09:02
Post #3

Group: Дух
Posts: 3
Releases: 0
On Forums: 3 months 1 week
Thanks: 0 time(s)
Ukraine


Перезалейте, пожалуйста, битый архив
Go to the top of the page
  Insert nick Quick quote
+Quote Post

Reply to this topicStart new topic
2 User(s) are reading this topic (2 Guests and 0 Anonymous Users)
0 Members:

 



- Lo-Fi Version Support form
Copyrights and abuse reports form
Time is now: 20th September 2019 - 06:14:54