Welcome Guest ( Log In | Register )

> Releases Upload / Добавление релизов

Добавить релиз тут / Click here to add release
Рекомендованные обменники / Recommended file shares

> Medium - Blinder (2001), Death Metal (D7)
post Sep 11 2019, 10:47:16
Post #1

Подвал
**************
Group: Металариец
Posts: 13,596
Releases: 7705
From: Far East (Khabarovsk)
On Forums: 10 years 7 months
Thanks: 74480 time(s)
Russian Federation


(IMG:http://metalarea.org/images/audiocovers/2019_Sep/acov_tid327224_thumb.jpg)

*Artist: Medium
*Album: Blinder
*Year: 2001
*Genre: Death Metal
*Country: Cuba (IMG:http://metalarea.org/forum/style_images/flags/Cuba.png)
*Format: mp3@CBR320kbps
*Size: 69MB

Tracklist:
1. Abyss Of Pain 04:19
2. Crowning With Thorns 04:52
3. Carnal Resurrection 03:56
4. Blinder 04:38
5. Proceso De Una Nueva Era 04:26
6. Necrotomía 01:43
7. Rebellion Has Begun 04:59
8. Cry Of Hate 05:15
******************************
Total playing time: 34:08

(IMG:http://metalarea.org/images/myspace.png)

Extended info
Recorded at Todo en Musica studios, Santa Clara, VC.


Technical info
(IMG:http://metalarea.org/images/spectrogram/2019_Sep/fc12d16063798a25c4ab418e282ec5a9.png)
Input File: 01-Abyss Of Pain.mp3
Channels : 2
Sample Rate : 44100
Precision : 16-bit
Duration : 00:04:19.45 = 11441789 samples = 19458.8 CDDA sectors
File Size : 10.4M
Bit Rate : 320k
Sample Encoding: MPEG audio (layer I, II or III)
Comments :
Title=Abyss Of Pain
Artist=Medium
Album=Blinder
Tracknumber=01
Year=2001
Genre=Death Metal



Register


Go to the top of the page
  Insert nick Quick quote
+Quote Post
 
Start new topic
Replies (1 - 1)
post Sep 13 2019, 13:28:21
Post #2

Подвал
**************
Group: Металариец
Posts: 13,596
Releases: 7705
From: Far East (Khabarovsk)
On Forums: 10 years 7 months
Thanks: 74480 time(s)
Russian Federation


вообще-то уже было Medium - Blinder (1991)
но я забыл совсем... из-за года выпуска не нашел.


Thanks:
(1) pichileon,
Go to the top of the page
  Insert nick Quick quote
+Quote Post

Reply to this topicStart new topic
1 User(s) are reading this topic (1 Guests and 0 Anonymous Users)
0 Members:

 



- Lo-Fi Version Support form
Copyrights and abuse reports form
Time is now: 20th September 2019 - 06:45:02