Welcome Guest ( Log In | Register )

> Releases Upload / Добавление релизов

Добавить релиз тут / Click here to add release
Рекомендованные обменники / Recommended file shares

> Kenosizm - In Too Deep (2019), Heavy/Thrash Metal
post Sep 11 2019, 10:55:00
Post #1

Правь статус, ####!111
**************
Group: Металариец
Posts: 18,520
Releases: 12530
From: Г.Харьков
On Forums: 7 years 4 months
Thanks: 212375 time(s)
Unknown


(IMG:https://metalarea.org/images/audiocovers/2019_Sep/acov_tid327225_thumb.jpg)

*Artist: Kenosizm
*Album: In Too Deep
*Year: 2019
*Genre: Heavy/Thrash Metal
*Country: United States (IMG:https://metalarea.org/forum/style_images/flags/United%20States.png)
*Format: mp3@CBR320kbps
*Size: 100MB

Tracklist:
1. Queen Of Hearts
2. Wise Up And Rise
3. Fictional Reality
4. Lies You’ve Lied
5. Flat And Motionless
6. Lambs To Slaughter
7. Anomaly
8. Slaves To The State
9. Nah$A
10. Fiend (Ooh Yeah)
******************************
Total playing time: 42:44



Extended info
David Mena: Guitar / Vocals
Aaron Madrid: Lead Guitar



Technical info
(IMG:https://metalarea.org/images/spectrogram/2019_Sep/5253840bedafc574f1c88b6788cddf2c.png)
Input File: 3.Fictional Reality.mp3
Channels : 2
Sample Rate : 44100
Precision : 16-bit
Duration : 00:04:12.07 = 11116375 samples = 18905.4 CDDA sectors
File Size : 10.5M
Bit Rate : 333k
Sample Encoding: MPEG audio (layer I, II or III)
Comments :
Title=Fictional Reality
Artist=Kenosizm
Album=In Too Deep
Tracknumber=3
Year=2019
Genre=Heavy Metal



Register


Go to the top of the page
  Insert nick Quick quote
+Quote Post
 
Start new topic
Replies (1 - 3)
post Sep 12 2019, 05:56:42
Post #2

Четыре Литра
****
Group: Металариец
Posts: 304
Releases: 61
From: saratov
On Forums: 10 years 1 month
Thanks: 1482 time(s)
Russian Federation


(IMG:style_emoticons/default/22.gif)
Go to the top of the page
  Insert nick Quick quote
+Quote Post
post Sep 12 2019, 10:58:16
Post #3

Маньяк
**********
Group: Металариец
Posts: 1,363
Releases: 5
From: Нью-Васюки
On Forums: 13 years 4 months
Thanks: 390 time(s)
Russian Federation


Чушь полнейшая.
Go to the top of the page
  Insert nick Quick quote
+Quote Post
post Sep 12 2019, 17:17:45
Post #4

MDM-Thrash Metal
**************
Group: Металариец
Posts: 8,684
Releases: 599
From: Одесса
On Forums: 12 years 1 month
Thanks: 17310 time(s)
Ukraine


ЦИТАТА(Darkness @ Sep 12 2019, 12:58:16) *
Чушь полнейшая.

По-моему даже хуже!!!
Go to the top of the page
  Insert nick Quick quote
+Quote Post

Reply to this topicStart new topic
2 User(s) are reading this topic (2 Guests and 0 Anonymous Users)
0 Members:

 



- Lo-Fi Version Support form
Copyrights and abuse reports form
Time is now: 19th September 2019 - 01:25:35