Welcome Guest ( Log In | Register )

> Releases Upload / Добавление релизов

Добавить релиз тут / Click here to add release
Рекомендованные обменники / Recommended file shares

> Downcross - What Light Covers Not (2019), Black Metal
post Sep 11 2019, 12:30:45
Post #1

Девять Литров
*********
Group: Металариец
Posts: 994
Releases: 832
From: Новороссийск
On Forums: 8 years 4 months
Thanks: 14712 time(s)
Russian Federation


(IMG:https://metalarea.org/images/audiocovers/2019_Sep/acov_tid327229_thumb.jpg)

*Artist: Downcross
*Album: What Light Covers Not
*Year: 2019
*Genre: Black Metal
*Country: Belarus (IMG:https://metalarea.org/forum/style_images/flags/Belarus.png)
*Format: mp3@CBR320kbps
*Size: 85MB

Tracklist:
01. To Cross The Path Of Fire 04:15
02. What Light Covers Not 06:12
03. Opening The Shells of Spreading Chaos 05:04
04. In The Thoughtless Black Light 05:34
05. The Making Will Not Be Commited 05:06
06. Following Vama Marga 06:41
07. Kingdom Of The Absent One 04:08
******************************
Total playing time: 37:02




Technical info
(IMG:https://metalarea.org/images/spectrogram/2019_Sep/1e09828a39dd997806606c0aed1957cc.png)
Input File: 01 To Cross The Path Of Fire.mp3
Channels : 2
Sample Rate : 44100
Precision : 16-bit
Duration : 00:04:15.08 = 11248852 samples = 19130.7 CDDA sectors
File Size : 10.2M
Bit Rate : 320k
Sample Encoding: MPEG audio (layer I, II or III)
Comments :
Title=To Cross The Path Of Fire
Artist=Downcross
Album=What Light Covers Not
Tracknumber=01
Year=2019
Genre=Black Metal



Register


Go to the top of the page
  Insert nick Quick quote
+Quote Post
 
Start new topic
Replies (1 - 2)
post Sep 13 2019, 21:50:08
Post #2

Четыре Литра
****
Group: Металариец
Posts: 313
Releases: 0
On Forums: 13 years 1 month
Thanks: 184 time(s)
Belarus


Что то не цепляет меня такой блэк
Go to the top of the page
  Insert nick Quick quote
+Quote Post
post Sep 16 2019, 12:45:15
Post #3

Литр
*
Group: Подсевший
Posts: 97
Releases: 0
From: Beermuda
On Forums: 8 years 5 months
Thanks: 14 time(s)
Lithuania


ЦИТАТА(Corpse_Of_The_Christ @ Sep 13 2019, 23:50:08) *
Что то не цепляет меня такой блэк

Меня первый альбом зацепил, а этот пока никак...
Go to the top of the page
  Insert nick Quick quote
+Quote Post

Reply to this topicStart new topic
1 User(s) are reading this topic (1 Guests and 0 Anonymous Users)
0 Members:

 



- Lo-Fi Version Support form
Copyrights and abuse reports form
Time is now: 19th September 2019 - 01:02:30