Welcome Guest ( Log In | Register )

> Strana Officina - Law Of The Jungle (2019), Heavy Metal (D10)
post Sep 11 2019, 13:26:49
Post #1

Serial Uploader
Group Icon
Group: V.I.P
Posts: 37,054
Releases: 35235
From: Lithuania
On Forums: 11 years 8 months
Thanks: 415417 time(s)
Lithuania


(IMG:https://metalarea.org/images/audiocovers/2019_Sep/acov_tid327230_thumb.jpg)

*Artist: Strana Officina
*Album: Law Of The Jungle
*Year: 2019
*Genre: Heavy Metal
*Country: Italy (IMG:https://metalarea.org/forum/style_images/flags/Italy.png)
*Format: mp3@CBR320kbps
*Size: 101MB

Tracklist:
01. Law of the Jungle 04:23
02. Crazy About You 04:51
03. Endless Highway 04:42
04. The Wolf Within 04:06
05. Snowbound 04:38
06. The Devil & Mr. Johnson 04:50
07. Love Kills 05:02
08. Difendi la fede 04:01
09. Guerra triste 06:55
10. Il buio dentro 04:05
******************************
Total playing time: 47:33

(IMG:https://metalarea.org/images/myspace.png)



Technical info
(IMG:https://metalarea.org/images/spectrogram/2019_Sep/3d0afea7734c32a2fab0c9949f90d9aa.png)
Input File: 02 - Crazy About You.mp3
Channels : 2
Sample Rate : 44100
Precision : 16-bit
Duration : 00:04:51.55 = 12857135 samples = 21865.9 CDDA sectors
File Size : 11.8M
Bit Rate : 325k
Sample Encoding: MPEG audio (layer I, II or III)
Comments :
Title=Crazy About You
Artist=Strana Officina
Album=Law Of The Jungle
Tracknumber=2
Year=2019
Genre=Heavy Metal
Discnumber=1



Register


Go to the top of the page
  Insert nick Quick quote
+Quote Post
 
Start new topic
Replies (1 - 2)
post Sep 15 2019, 10:41:32
Post #2

Перевозчик
**************
Group: Металариец
Posts: 3,122
Releases: 0
On Forums: 11 years 7 months
Thanks: 685 time(s)
Russian Federation


Ещё одни любители замыленного мутного звука.
Go to the top of the page
  Insert nick Quick quote
+Quote Post
post Oct 11 2019, 16:00:58
Post #3

Литр
*
Group: Подсевший
Posts: 74
Releases: 0
From: Finland
On Forums: 10 years 8 months
Thanks: 10 time(s)
Russian Federation


Re-upload anyone?
Appreciated! Ty! (IMG:style_emoticons/default/smile1.gif)
Go to the top of the page
  Insert nick Quick quote
+Quote Post

Reply to this topicStart new topic
1 User(s) are reading this topic (1 Guests and 0 Anonymous Users)
0 Members:

 



- Lo-Fi Version Support form
Copyrights and abuse reports form
Time is now: 29th February 2020 - 08:23:08