Welcome Guest ( Log In | Register )

> Releases Upload / Добавление релизов

Добавить релиз тут / Click here to add release
Рекомендованные обменники / Recommended file shares

> Fullmetal Death - Master Of Shadows (2019), Stoner/Doom Metal
post Sep 11 2019, 13:45:49
Post #1

Serial Uploader
Group Icon
Group: V.I.P
Posts: 36,100
Releases: 34291
From: Lithuania
On Forums: 11 years 3 months
Thanks: 397807 time(s)
Lithuania


(IMG:https://metalarea.org/images/audiocovers/2019_Sep/acov_tid327231_thumb.jpg)

*Artist: Fullmetal Death
*Album: Master Of Shadows
*Year: 2019
*Genre: Stoner/Doom Metal
*Country: United States (IMG:https://metalarea.org/forum/style_images/flags/United%20States.png)
*Format: mp3@CBR320kbps
*Size: 146MB

Tracklist:
01. Death Rattle 05:06
02. Lesser Gods 06:47
03. Hell Hounds 07:51
04. Deadman 06:12
05. Please, Mr. Nightmare 09:25
06. Cosmic Destroyer 06:50
07. Souldrinker 06:32
08. A Taste of the Grave 07:48
09. Metal Skeleton 07:27
******************************
Total playing time: 1:03:58

Technical info
(IMG:https://metalarea.org/images/spectrogram/2019_Sep/c0529ee25149403510f42aec6242ce9c.png)
Input File: 02. Lesser Gods.mp3
Channels : 2
Sample Rate : 44100
Precision : 16-bit
Duration : 00:06:46.86 = 17942350 samples = 30514.2 CDDA sectors
File Size : 16.3M
Bit Rate : 320k
Sample Encoding: MPEG audio (layer I, II or III)
Comments :
Title=Lesser Gods
Artist=Fullmetal Death
Album=Master of Shadows
Tracknumber=2/9
Year=2019
Genre=9
Discnumber=1/1



Register


Go to the top of the page
  Insert nick Quick quote
+Quote Post
 
Start new topic
Replies (1 - 2)
post Sep 11 2019, 19:22:23
Post #2

hearer & reader
**************
Group: Металариец
Posts: 8,029
Releases: 104
From: Moscow
On Forums: 12 years 1 week
Thanks: 7519 time(s)
Russian Federation


Go to the top of the page
  Insert nick Quick quote
+Quote Post
post Sep 12 2019, 05:52:44
Post #3

Три Литра
***
Group: Завсегдатай
Posts: 238
Releases: 0
From: Россия
On Forums: 7 years 7 months
Thanks: 80 time(s)
Russian Federation


Снова нет ссылок на превью,и снова железно страна уса (IMG:style_emoticons/default/1488.gif) И год релиза железно 2019 (IMG:style_emoticons/default/1488.gif)


А,забыл,там откуда все твои новинки переливы,так ведь было указано.Башку зачем включать,тупо схватил,тупо скопировал,тупо перелил,весь твой постинг
Go to the top of the page
  Insert nick Quick quote
+Quote Post

Reply to this topicStart new topic
2 User(s) are reading this topic (2 Guests and 0 Anonymous Users)
0 Members:

 



- Lo-Fi Version Support form
Copyrights and abuse reports form
Time is now: 19th September 2019 - 01:23:15