Welcome Guest ( Log In | Register )

> Releases Upload / Добавление релизов

Добавить релиз тут / Click here to add release
Рекомендованные обменники / Recommended file shares

> Sangre Maldita - Pandemonium (2019), Gothic/Dark/Death Metal
post Sep 11 2019, 14:01:17
Post #1

Serial Uploader
Group Icon
Group: V.I.P
Posts: 36,100
Releases: 34291
From: Lithuania
On Forums: 11 years 3 months
Thanks: 397807 time(s)
Lithuania


(IMG:https://metalarea.org/images/audiocovers/2019_Sep/acov_tid327232_thumb.jpg)

*Artist: Sangre Maldita
*Album: Pandemonium
*Year: 2019
*Genre: Gothic/Dark/Death Metal
*Country: United States (IMG:https://metalarea.org/forum/style_images/flags/United%20States.png)
*Format: mp3@CBR320kbps
*Size: 156MB

Tracklist:
01. Ofrenda solemne 04:38
02. Padre Santo 2.0 03:33
03. Alma negra 06:07
04. Sentencia nocturna 05:25
05. Pandemonium 04:13
06. Sol sangriento 03:10
07. Desde mi ayer 04:41
08. Esclavo de un fantasma 05:32
09. Ninfantropia 03:12
10. Vampirela 03:38
11. Entre el cielo tu y yo 04:00
12. Cuanto te necesito 04:12
13. Padre Santo 04:42
14. Alma negra (150bpm) 05:24
15. El hedor de la descomposición (demo 2015) 03:55
******************************
Total playing time: 1:06:22



Technical info
(IMG:https://metalarea.org/images/spectrogram/2019_Sep/80c8b48d5a39be4bf88573764391c2a9.png)
Input File: 03 Alma Negra.mp3
Channels : 2
Sample Rate : 44100
Precision : 16-bit
Duration : 00:06:06.98 = 16183686 samples = 27523.3 CDDA sectors
File Size : 15.1M
Bit Rate : 329k
Sample Encoding: MPEG audio (layer I, II or III)
Comments :
Title=Alma Negra
Artist=Sangre Maldita
Album=Pandemonium
Tracknumber=3
Year=2019
Genre=Metal Gótico



Register


Go to the top of the page
  Insert nick Quick quote
+Quote Post
 
Start new topic
Replies (1 - 2)
post Sep 11 2019, 19:36:09
Post #2

Семь Литров
*******
Group: Металариец
Posts: 760
Releases: 0
From: Черкассы
On Forums: 7 years 9 months
Thanks: 104 time(s)
Ukraine


*Страна:Mexico


Thanks:
Go to the top of the page
  Insert nick Quick quote
+Quote Post
post Sep 12 2019, 07:45:18
Post #3

Два Литра
**
Group: Завсегдатай
Posts: 149
Releases: 5
From: Москва
On Forums: 12 years 7 months
Thanks: 128 time(s)
Russian Federation


https://www.youtube.com/watch?v=gy3JDbEC1PE


Thanks:
Go to the top of the page
  Insert nick Quick quote
+Quote Post

Reply to this topicStart new topic
2 User(s) are reading this topic (2 Guests and 0 Anonymous Users)
0 Members:

 



- Lo-Fi Version Support form
Copyrights and abuse reports form
Time is now: 19th September 2019 - 00:51:09