Welcome Guest ( Log In | Register )

> Releases Upload / Добавление релизов

Добавить релиз тут / Click here to add release
Рекомендованные обменники / Recommended file shares

 
Reply to this topicStart new topic
> Horizon Of The Mute - Sole Dogma (2019), Drone/Doom Metal
post Sep 11 2019, 14:15:29
Post #1

Serial Uploader
Group Icon
Group: V.I.P
Posts: 36,100
Releases: 34299
From: Lithuania
On Forums: 11 years 3 months
Thanks: 397807 time(s)
Lithuania


(IMG:https://metalarea.org/images/audiocovers/2019_Sep/acov_tid327233_thumb.jpg)

*Artist: Horizon Of The Mute
*Album: Sole Dogma
*Year: 2019
*Genre: Drone/Doom Metal
*Country: United States (IMG:https://metalarea.org/forum/style_images/flags/United%20States.png)
*Format: mp3@CBR320kbps
*Size: 90MB

Tracklist:
01. The Mass 07:55
02. Yeasayer 11:32
03. Sole Dogma 09:59
04. Denailing the Pierced Flesh 10:02
******************************
Total playing time: 39:28




Technical info
(IMG:https://metalarea.org/images/spectrogram/2019_Sep/272ba0ecdecf9f26d4edb7d3130a7ea4.png)
Input File: 04. Denailing the Pierced Flesh.mp3
Channels : 2
Sample Rate : 44100
Precision : 16-bit
Duration : 00:10:02.50 = 26570162 samples = 45187.4 CDDA sectors
File Size : 24.2M
Bit Rate : 321k
Sample Encoding: MPEG audio (layer I, II or III)
Comments :
Title=Denailing the Pierced Flesh
Artist=Horizon of the Mute
Album=Sole Dogma
Tracknumber=4/4
Year=2019
Genre=9
Discnumber=1/1



Register


Go to the top of the page
  Insert nick Quick quote
+Quote Post

Reply to this topicStart new topic
2 User(s) are reading this topic (2 Guests and 0 Anonymous Users)
0 Members:

 



- Lo-Fi Version Support form
Copyrights and abuse reports form
Time is now: 19th September 2019 - 01:31:47