Welcome Guest ( Log In | Register )

> Releases Upload / Добавление релизов

Добавить релиз тут / Click here to add release
Рекомендованные обменники / Recommended file shares

> Apanthropy - Monument Of Solitude (2019), Black Metal
post Sep 11 2019, 14:54:17
Post #1

Serial Uploader
Group Icon
Group: V.I.P
Posts: 36,100
Releases: 34299
From: Lithuania
On Forums: 11 years 3 months
Thanks: 397807 time(s)
Lithuania


(IMG:https://metalarea.org/images/audiocovers/2019_Sep/acov_tid327234_thumb.png)

*Artist: Apanthropy
*Album: Monument Of Solitude
*Year: 2019
*Genre: Black Metal
*Country: France (IMG:https://metalarea.org/forum/style_images/flags/France.png)
*Format: mp3@CBR320kbps
*Size: 90MB

Tracklist:
01. Towards Its Annihilation 05:51
02. Cold 03:46
03. Dawn of Blind 02:31
04. Behind the Walls 04:19
05. Chamber 0 02:12
06. Skinless 06:14
07. Rotten 01:41
08. Red Tears 04:48
09. Spindelvev 06:06
******************************
Total playing time: 37:28

(IMG:https://metalarea.org/images/youtube.png)

Technical info
(IMG:https://metalarea.org/images/spectrogram/2019_Sep/10dbb0177363e8a96a7a6e77dfbfed3a.png)
Input File: 02 - Cold.mp3
Channels : 2
Sample Rate : 44100
Precision : 16-bit
Duration : 00:03:46.26 = 9978154 samples = 16969.6 CDDA sectors
File Size : 9.40M
Bit Rate : 332k
Sample Encoding: MPEG audio (layer I, II or III)
Comments :
Title=Cold
Artist=Apanthropy
Album=Monument Of Solitude
Tracknumber=2
Year=2019
Genre=Black Metal
Discnumber=1



Register


Go to the top of the page
  Insert nick Quick quote
+Quote Post
 
Start new topic
Replies (1 - 1)
post Sep 15 2019, 17:51:52
Post #2

Маньяк
**********
Group: Металариец
Posts: 1,113
Releases: 0
From: Canada
On Forums: 6 years 10 months
Thanks: 675 time(s)
Canada


Go to the top of the page
  Insert nick Quick quote
+Quote Post

Reply to this topicStart new topic
1 User(s) are reading this topic (1 Guests and 0 Anonymous Users)
0 Members:

 



- Lo-Fi Version Support form
Copyrights and abuse reports form
Time is now: 19th September 2019 - 01:35:10