Welcome Guest ( Log In | Register )

> Releases Upload / Добавление релизов

Добавить релиз тут / Click here to add release
Рекомендованные обменники / Recommended file shares

 
Reply to this topicStart new topic
> Everything Joseph - Opportunity Falls (2019), Instrumental/Progressive Metal
post Sep 11 2019, 15:09:34
Post #1

Serial Uploader
Group Icon
Group: V.I.P
Posts: 36,100
Releases: 34299
From: Lithuania
On Forums: 11 years 3 months
Thanks: 397807 time(s)
Lithuania


(IMG:https://metalarea.org/images/audiocovers/2019_Sep/acov_tid327235_thumb.jpg)

*Artist: Everything Joseph
*Album: Opportunity Falls
*Year: 2019
*Genre: Instrumental/Progressive Metal
*Country: United Kingdom (IMG:https://metalarea.org/forum/style_images/flags/United%20Kingdom.png)
*Format: mp3@CBR320kbps
*Size: 87MB

Tracklist:
01. You were, you are, you will be 03:21
02. The taste of grass and blood 03:22
03. Help the rested nether 03:11
04. Pulled naked through a dirty sewer 04:06
05. Starting hopes from ending dreams 03:29
06. From what it was to what it could be 03:41
07. Interlude 01:07
08. Ex Antagonist 03:21
09. You'll be my two (Instrumental) 03:25
10. Yondertow (Live at Stedfest) 04:02
11. Just not phased (Improvisation) 02:53
******************************
Total playing time: 35:58



Technical info
(IMG:https://metalarea.org/images/spectrogram/2019_Sep/886284d06fa3adad9977666dac5f41df.png)
Input File: 02 - The Taste of Grass and Blood.mp3
Channels : 2
Sample Rate : 44100
Precision : 16-bit
Duration : 00:03:22.57 = 8933205 samples = 15192.5 CDDA sectors
File Size : 8.41M
Bit Rate : 332k
Sample Encoding: MPEG audio (layer I, II or III)
Comments :
Title=The Taste of Grass and Blood
Artist=Everything Joseph
Album=Opportunity Falls
Tracknumber=2
Year=2019
Genre=Metal
Discnumber=1



Register


Go to the top of the page
  Insert nick Quick quote
+Quote Post

Reply to this topicStart new topic
2 User(s) are reading this topic (2 Guests and 0 Anonymous Users)
0 Members:

 



- Lo-Fi Version Support form
Copyrights and abuse reports form
Time is now: 19th September 2019 - 01:39:44