Welcome Guest ( Log In | Register )

> Releases Upload / Добавление релизов

Добавить релиз тут / Click here to add release
Рекомендованные обменники / Recommended file shares

 
Reply to this topicStart new topic
> Matt Manzella - Left Alive (2019), Instrumental/Progressive Metal
post Sep 11 2019, 15:20:27
Post #1

Serial Uploader
Group Icon
Group: V.I.P
Posts: 36,100
Releases: 34291
From: Lithuania
On Forums: 11 years 3 months
Thanks: 397807 time(s)
Lithuania


(IMG:https://metalarea.org/images/audiocovers/2019_Sep/acov_tid327236_thumb.jpg)

*Artist: Matt Manzella
*Album: Left Alive
*Year: 2019
*Genre: Instrumental/Progressive Metal
*Country: United States (IMG:https://metalarea.org/forum/style_images/flags/United%20States.png)
*Format: mp3@CBR320kbps
*Size: 78MB

Tracklist:
01. Left Alive 03:56
02. Hellhounds 03:50
03. Tranquil Elegance 04:18
04. Clever as the Devil 04:12
05. Bandito 04:48
06. Fortune and Shame 05:52
07. Weapons of War 03:44
08. Blood in the Snow 03:26
******************************
Total playing time: 34:06




Technical info
(IMG:https://metalarea.org/images/spectrogram/2019_Sep/17990dbf01a741abf93c3ffa1f153023.png)
Input File: 03. Tranquil Elegance.mp3
Channels : 2
Sample Rate : 44100
Precision : 16-bit
Duration : 00:04:18.08 = 11381372 samples = 19356.1 CDDA sectors
File Size : 10.4M
Bit Rate : 323k
Sample Encoding: MPEG audio (layer I, II or III)
Comments :
Title=Tranquil Elegance
Artist=Matt Manzella
Album=Left Alive
Tracknumber=3/8
Year=2019
Genre=9
Discnumber=1/1



Register


Go to the top of the page
  Insert nick Quick quote
+Quote Post

Reply to this topicStart new topic
3 User(s) are reading this topic (3 Guests and 0 Anonymous Users)
0 Members:

 



- Lo-Fi Version Support form
Copyrights and abuse reports form
Time is now: 19th September 2019 - 01:04:48