Welcome Guest ( Log In | Register )

> Releases Upload / Добавление релизов

Добавить релиз тут / Click here to add release
Рекомендованные обменники / Recommended file shares

> Salem Burning - Revelations (2019), Death Metal/Deathcore
post Sep 11 2019, 15:29:15
Post #1

Serial Uploader
Group Icon
Group: V.I.P
Posts: 36,100
Releases: 34291
From: Lithuania
On Forums: 11 years 3 months
Thanks: 397807 time(s)
Lithuania


(IMG:https://metalarea.org/images/audiocovers/2019_Sep/acov_tid327237_thumb.jpg)

*Artist: Salem Burning
*Album: Revelations
*Year: 2019
*Genre: Death Metal/Deathcore
*Country: United States (IMG:https://metalarea.org/forum/style_images/flags/United%20States.png)
*Format: mp3@CBR320kbps
*Size: 77MB

Tracklist:
01. In The Beginning... 01:28
02. Lust 02:56
03. Gluttony 02:17
04. Greed 03:28
05. Sloth 03:00
06. Wrath 03:22
07. Envy 03:10
08. Pride 02:43
09. Rapture 03:44
10. Riders of the apocalypse 04:51
******************************
Total playing time: 30:59




Technical info
(IMG:https://metalarea.org/images/spectrogram/2019_Sep/f319cf17495f1b4984c818984b209a12.png)
Input File: 02 - Lust.mp3
Channels : 2
Sample Rate : 44100
Precision : 16-bit
Duration : 00:02:56.08 = 7765040 samples = 13205.9 CDDA sectors
File Size : 7.38M
Bit Rate : 335k
Sample Encoding: MPEG audio (layer I, II or III)
Comments :
Title=Lust
Artist=Salem Burning
Album=Revelations
Tracknumber=2
Year=2019
Genre=Metal
Discnumber=1



Register


Go to the top of the page
  Insert nick Quick quote
+Quote Post
 
Start new topic
Replies (1 - 2)
post Sep 11 2019, 18:59:36
Post #2

Литр
*
Group: Подсевший
Posts: 82
Releases: 0
From: Новороссийск
On Forums: 11 years 2 weeks
Thanks: 9 time(s)
Russian Federation


смачно и жирно, завтра в качалке хорошо зайдет
Go to the top of the page
  Insert nick Quick quote
+Quote Post
post Sep 11 2019, 21:29:35
Post #3

Три Литра
***
Group: Завсегдатай
Posts: 258
Releases: 0
From: Москва
On Forums: 11 years 1 week
Thanks: 39 time(s)
Russian Federation


чего то ничего жирного не услышал, весьма посредственный опус


Thanks:
(1) Andrew,
Go to the top of the page
  Insert nick Quick quote
+Quote Post

Reply to this topicStart new topic
2 User(s) are reading this topic (2 Guests and 0 Anonymous Users)
0 Members:

 



- Lo-Fi Version Support form
Copyrights and abuse reports form
Time is now: 19th September 2019 - 00:49:38