Welcome Guest ( Log In | Register )

> Releases Upload / Добавление релизов

Добавить релиз тут / Click here to add release
Рекомендованные обменники / Recommended file shares

 
Reply to this topicStart new topic
> Elusive Travel - Sounds Of Oppari (2019), Doom/Death/Post-Metal
post Sep 11 2019, 15:45:09
Post #1

Serial Uploader
Group Icon
Group: V.I.P
Posts: 36,100
Releases: 34291
From: Lithuania
On Forums: 11 years 3 months
Thanks: 397807 time(s)
Lithuania


(IMG:https://metalarea.org/images/audiocovers/2019_Sep/acov_tid327239_thumb.png)

*Artist: Elusive Travel
*Album: Sounds Of Oppari
*Year: 2019
*Genre: Doom/Death/Post-Metal
*Country: United States (IMG:https://metalarea.org/forum/style_images/flags/United%20States.png)
*Format: mp3@CBR320kbps
*Size: 68MB

Tracklist:
01. All Mistakes Are Intentional 04:27
02. Shiva 05:08
03. Art of Letting Go 05:49
04. Oppari 04:14
05. December Lies 05:14
06. Passages 04:23
******************************
Total playing time: 29:15

(IMG:https://metalarea.org/images/myspace.png)


Preview 4
(IMG:https://metalarea.org/images/youtube.png)

Technical info
(IMG:https://metalarea.org/images/spectrogram/2019_Sep/3fc2e5753fcd62ea01f40b344d9a1d14.png)
Input File: 05 - December Lies.mp3
Channels : 2
Sample Rate : 44100
Precision : 16-bit
Duration : 00:05:14.82 = 13883650 samples = 23611.6 CDDA sectors
File Size : 12.7M
Bit Rate : 322k
Sample Encoding: MPEG audio (layer I, II or III)
Comments :
Title=December Lies
Artist=Elusive Travel
Album=Sounds of Oppari
Tracknumber=5
Year=2019
Genre=Metal



Register


Go to the top of the page
  Insert nick Quick quote
+Quote Post

Reply to this topicStart new topic
1 User(s) are reading this topic (1 Guests and 0 Anonymous Users)
0 Members:

 



- Lo-Fi Version Support form
Copyrights and abuse reports form
Time is now: 19th September 2019 - 01:15:46