Welcome Guest ( Log In | Register )

> Releases Upload / Добавление релизов

Добавить релиз тут / Click here to add release
Рекомендованные обменники / Recommended file shares

 
Reply to this topicStart new topic
> Bitter Mind - Reincarnation [ep] (2019), Groove/Thrash Metal
post Sep 11 2019, 15:52:04
Post #1

Serial Uploader
Group Icon
Group: V.I.P
Posts: 36,100
Releases: 34299
From: Lithuania
On Forums: 11 years 3 months
Thanks: 397807 time(s)
Lithuania


(IMG:https://metalarea.org/images/audiocovers/2019_Sep/acov_tid327240_thumb.jpg)

*Artist: Bitter Mind
*Album: Reincarnation [ep]
*Year: 2019
*Genre: Groove/Thrash Metal
*Country: Finland (IMG:https://metalarea.org/forum/style_images/flags/Finland.png)
*Format: mp3@CBR320kbps
*Size: 48MB

Tracklist:
01. Reincarnation
02. False Accusations
03. Thousand Yard Stare
04. Distraction
******************************
Total playing time: 20:54



Technical info
(IMG:https://metalarea.org/images/spectrogram/2019_Sep/c23c999d4c6c1d17f82b50351d3fb298.png)
Input File: 02. False Accusations.mp3
Channels : 2
Sample Rate : 44100
Precision : 16-bit
Duration : 00:04:40.26 = 12359466 samples = 21019.5 CDDA sectors
File Size : 11.3M
Bit Rate : 322k
Sample Encoding: MPEG audio (layer I, II or III)
Comments :
Title=False Accusations
Artist=Bitter Mind
Album=Reincarnation
Tracknumber=2/4
Year=2019
Genre=9
Discnumber=1/1



Register


Go to the top of the page
  Insert nick Quick quote
+Quote Post

Reply to this topicStart new topic
1 User(s) are reading this topic (1 Guests and 0 Anonymous Users)
0 Members:

 



- Lo-Fi Version Support form
Copyrights and abuse reports form
Time is now: 19th September 2019 - 01:33:03