Welcome Guest ( Log In | Register )

> Releases Upload / Добавление релизов

Добавить релиз тут / Click here to add release
Рекомендованные обменники / Recommended file shares

> Ikitie - Kostontuoja [ep] (2019), Heavy Metal
post Sep 11 2019, 16:00:23
Post #1

Serial Uploader
Group Icon
Group: V.I.P
Posts: 36,100
Releases: 34291
From: Lithuania
On Forums: 11 years 3 months
Thanks: 397807 time(s)
Lithuania


(IMG:https://metalarea.org/images/audiocovers/2019_Sep/acov_tid327241_thumb.jpg)

*Artist: Ikitie
*Album: Kostontuoja [ep]
*Year: 2019
*Genre: Heavy Metal
*Country: Finland (IMG:https://metalarea.org/forum/style_images/flags/Finland.png)
*Format: mp3@CBR320kbps
*Size: 53MB

Tracklist:
01. Kostontuoja
02. Huutoja pimeydessä
03. Luutarha
04. Muutosvoimassa
05. Toinen
******************************
Total playing time: 23:05



Technical info
(IMG:https://metalarea.org/images/spectrogram/2019_Sep/9630c1bb50522c80342815e094838956.png)
Input File: 02. Huutoja pimeydessä.mp3
Channels : 2
Sample Rate : 44100
Precision : 16-bit
Duration : 00:04:48.65 = 12729289 samples = 21648.5 CDDA sectors
File Size : 11.7M
Bit Rate : 323k
Sample Encoding: MPEG audio (layer I, II or III)
Comments :
Title=Huutoja pimeydessä
Artist=Ikitie
Album=Kostontuoja
Tracknumber=2/5
Year=2019
Genre=9
Discnumber=1/1



Register


Go to the top of the page
  Insert nick Quick quote
+Quote Post
 
Start new topic
Replies (1 - 1)
post Sep 15 2019, 10:40:50
Post #2

Перевозчик
**************
Group: Металариец
Posts: 3,023
Releases: 0
On Forums: 11 years 2 months
Thanks: 654 time(s)
Russian Federation


Подавально-унитазно-ведёрный ансамбль.

Go to the top of the page
  Insert nick Quick quote
+Quote Post

Reply to this topicStart new topic
1 User(s) are reading this topic (1 Guests and 0 Anonymous Users)
0 Members:

 



- Lo-Fi Version Support form
Copyrights and abuse reports form
Time is now: 19th September 2019 - 00:58:40