Welcome Guest ( Log In | Register )

> Releases Upload / Добавление релизов

Добавить релиз тут / Click here to add release
Рекомендованные обменники / Recommended file shares

> Melancholie - Agonie (2019), Black Metal/Shoegaze/Depressive Rock
post Sep 11 2019, 17:09:53
Post #1

the faceless one
Group Icon
Group: S-moderation team
Posts: 9,228
Releases: 1885
On Forums: 11 years 1 month
Thanks: 111016 time(s)
Russian Federation


(IMG:http://metalarea.org/images/audiocovers/2019_Sep/acov_tid327243_thumb.jpg)

*Artist: Melancholie
*Album: Agonie
*Year: 2019
*Genre: Black Metal/Shoegaze/Depressive Rock
*Country: Netherlands (IMG:http://metalarea.org/forum/style_images/flags/Netherlands.png)
*Format: mp3@VBR260kbps
*Size: 106MB

Tracklist:
1. The Marching Beneath 06:11
2. Abject 02:20
3. Rain 04:28
4. Stress And Fear 05:37
5. Forbidden Longing 07:33
6. Distance 05:00
7. Your Retribution 05:43
8. Your Passing 03:46
9. My Last Goodbye 05:50
10. L'homme Et La Mer 09:45
11. Closure 00:50
******************************
Total playing time: 57:03



Extended info
The Throat ‎– KEEL160


Technical info
(IMG:http://metalarea.org/images/spectrogram/2019_Sep/124d7e697c2cd892cf178f28a27e70d3.png)
Input File: 05 Forbidden Longing.mp3
Channels : 2
Sample Rate : 44100
Precision : 16-bit
Duration : 00:07:33.09 = 19981401 samples = 33982 CDDA sectors
File Size : 15.7M
Bit Rate : 277k
Sample Encoding: MPEG audio (layer I, II or III)
Comments :
Title=Forbidden Longing
Artist=Melancholie
Album=Agonie
Tracknumber=05/11
Year=2019



Register


Go to the top of the page
  Insert nick Quick quote
+Quote Post
 
Start new topic
Replies (1 - 5)
post Sep 11 2019, 18:37:13
Post #2

Три Литра
***
Group: Завсегдатай
Posts: 273
Releases: 144
On Forums: 7 years 1 week
Thanks: 3484 time(s)
Unknown


ну чёт блэка вообще сыскать сложно. Это прям Alcest 2010-2012 немного подмешавший в себе с Les Discrets, ещё подхвативший LowCityRain, в итоге утопивший яркость зефира в шуме и гулкости подвала. Но попытка автора в Снежка прям слышится очень хорошо.
Go to the top of the page
  Insert nick Quick quote
+Quote Post
post Sep 11 2019, 19:59:58
Post #3

Group: Дух
Posts: 8
Releases: 0
On Forums: 10 years 4 months
Thanks: 0 time(s)
Russian Federation


Дико извиняюсь,можно на другой обменник пожалуйста. Благодарствую!!
Go to the top of the page
  Insert nick Quick quote
+Quote Post
post Sep 11 2019, 20:07:59
Post #4

the faceless one
Group Icon
Group: S-moderation team
Posts: 9,228
Releases: 1885
On Forums: 11 years 1 month
Thanks: 111016 time(s)
Russian Federation


В шапку добавил ссылку на альтернативный хостинг.


Go to the top of the page
  Insert nick Quick quote
+Quote Post
post Sep 11 2019, 21:30:38
Post #5

Dark Ambient Shoujo
**********
Group: Металариец
Posts: 1,164
Releases: 1
On Forums: 10 years 8 months
Thanks: 584 time(s)
Russian Federation


Ну до Альцеста далековато, это мягко говоря.
Go to the top of the page
  Insert nick Quick quote
+Quote Post
post Sep 12 2019, 06:10:59
Post #6

ы.
**************
Group: Металариец
Posts: 2,982
Releases: 0
On Forums: 3 years 7 months
Thanks: 1806 time(s)
Unknown


не рыба не мясо, алцест на две головы выше сабжа.
Go to the top of the page
  Insert nick Quick quote
+Quote Post

Reply to this topicStart new topic
2 User(s) are reading this topic (2 Guests and 0 Anonymous Users)
0 Members:

 



- Lo-Fi Version Support form
Copyrights and abuse reports form
Time is now: 19th September 2019 - 00:49:22