Welcome Guest ( Log In | Register )

> Releases Upload / Добавление релизов

Добавить релиз тут / Click here to add release
Рекомендованные обменники / Recommended file shares

 
Reply to this topicStart new topic
> Bolt Action - Born To Riff [ep] (2019), Thrash/Death Metal/Crust
post Sep 11 2019, 17:56:40
Post #1

Каждое ваше "Спасибо" помогает мне понять, что я делаю новости не напрасно.
***********
Group: Металариец
Posts: 1,929
Releases: 1688
From: Одесса
On Forums: 11 years 3 months
Thanks: 14485 time(s)
Ukraine


(IMG:http://metalarea.org/images/audiocovers/2019_Sep/acov_tid327244_thumb.jpg)

*Artist: Bolt Action
*Album: Born To Riff [ep]
*Year: 2019
*Genre: Thrash/Death Metal/Crust
*Country: United Kingdom (IMG:http://metalarea.org/forum/style_images/flags/United%20Kingdom.png)
*Format: mp3@CBR320kbps
*Size: 50MB

Tracklist:
1.Mother Green 03:04
2.Skull Fucked 02:24
3.Regrets 02:26
4.Old Rotten Crotch 03:20
5.War Face 00:26
6.FMB - Born to Riff 02:27
7.Reach Around 02:36
8.The Dead Philosophy 04:21
******************************
Total playing time: 21:04



Extended info
Line - up:
Andrew Bolton - All instruments, Vocals (Human Mycosis, Cranial Contamination (live), ex-Decimation)

Guest/Session:
Jim Taylor - Vocals (Human Mycosis, ex-Decimation)
Steve Moyle - Vocals (Human Mycosis)
Grandfather Nebulous - Vocals (Wisdom Without Worship)


Technical info
(IMG:http://metalarea.org/images/spectrogram/2019_Sep/161e02e66e0ea2e67ce6226312b1e752.png)
Input File: 03. Regrets.mp3
Channels : 2
Sample Rate : 44100
Precision : 16-bit
Duration : 00:02:26.71 = 6470087 samples = 11003.5 CDDA sectors
File Size : 5.87M
Bit Rate : 320k
Sample Encoding: MPEG audio (layer I, II or III)
Comments :
Title=Regrets
Artist=Bolt Action
Album=Born To Riff (EP)
Tracknumber=3
Year=2019
Genre=Thrash/Death Metal/Crust



Register


Go to the top of the page
  Insert nick Quick quote
+Quote Post

Reply to this topicStart new topic
1 User(s) are reading this topic (1 Guests and 0 Anonymous Users)
0 Members:

 



- Lo-Fi Version Support form
Copyrights and abuse reports form
Time is now: 19th September 2019 - 00:49:44