Welcome Guest ( Log In | Register )

> Releases Upload / Добавление релизов

Добавить релиз тут / Click here to add release
Рекомендованные обменники / Recommended file shares

> Until Death Overtakes Me - Herald Of Sorrow [compilation] (2019), Funeral Doom Metal
post Sep 11 2019, 18:30:31
Post #1

Каждое ваше "Спасибо" помогает мне понять, что я делаю новости не напрасно.
***********
Group: Металариец
Posts: 1,929
Releases: 1688
From: Одесса
On Forums: 11 years 3 months
Thanks: 14485 time(s)
Ukraine


(IMG:http://metalarea.org/images/audiocovers/2019_Sep/acov_tid327245_thumb.png)

*Artist: Until Death Overtakes Me
*Album: Herald Of Sorrow [compilation]
*Year: 2019
*Genre: Funeral Doom Metal
*Country: Belgium (IMG:http://metalarea.org/forum/style_images/flags/Belgium.png)
*Format: mp3@CBR320kbps
*Size: 227MB

Tracklist:
1.Void of Mind 09:04
2.A Pathway into Dream 13:25
3.Fractures in Earth 06:15
4.Claimed by Winter 14:36
5.Herald of Sorrow 31:31
6.Magistralis (alternate version) 04:10
7.Spectre 10:26
******************************
Total playing time: 1:29:27



Extended info
Line - up:

Stijn van Cauter - Everything (Arcane Voidsplitter, Beyond Black Void, Desperandum Gothica, Gruulvoqh, Inframonolithium, The Ethereal, The NULLL Collective, ex-In Somnis, ex-The Sad Sun, Catnoms For Fluffy, Fall of the Grey-Winged One, Vita Dolorosa, ex-Solicide, ex-Wijlen Wij, ex-Cold Aeon, ex-Dance Nihil, ex-Dreams of Dying Stars, ex-Forbidden Fields, ex-I Dream No More, ex-In the Mist, ex-Organium, ex-Tear Your Soul Apart)

(IMG:https://f4.bcbits.com/img/0007388601_10.jpg)


Technical info
(IMG:http://metalarea.org/images/spectrogram/2019_Sep/550749a98cc3ba62ab44c1791af0f8ca.png)
Input File: 04. Claimed by Winter.mp3
Channels : 2
Sample Rate : 44100
Precision : 16-bit
Duration : 00:14:36.64 = 38659912 samples = 65748.1 CDDA sectors
File Size : 35.1M
Bit Rate : 321k
Sample Encoding: MPEG audio (layer I, II or III)
Comments :
Title=Claimed by Winter
Artist=Until Death Overtakes Me
Album=Herald of Sorrow (Compilation)
Tracknumber=4
Year=2019
Genre=Funeral Doom Metal



Register


Go to the top of the page
  Insert nick Quick quote
+Quote Post
 
Start new topic
Replies (1 - 3)
post Sep 12 2019, 07:54:35
Post #2

Sempiternus Necromant
**********
Group: Металариец
Posts: 1,026
Releases: 4
From: Сибирь - Алтайский Край
On Forums: 9 years 8 months
Thanks: 345 time(s)
Russian Federation


Это суть, колыбель для мёртвых разрушителей. Всегда нравился этот проект. (IMG:style_emoticons/default/27.gif)


Thanks:
(1) recber,
Go to the top of the page
  Insert nick Quick quote
+Quote Post
post Sep 12 2019, 15:43:45
Post #3

Три Литра
***
Group: Завсегдатай
Posts: 258
Releases: 0
From: Москва
On Forums: 11 years 1 week
Thanks: 39 time(s)
Russian Federation


решил освежить в памяти фюнеральщиков, пока слушал, показалось, что вылетел из своей телесной оболочки и смотрел на себя со стороны (до чего же хорош, сучонок (IMG:style_emoticons/default/smile1.gif) )
в определенный момент понял, что начинаю улетать все дальше, и появилось чувство тревоги и испуга, хорошо, что кот Васька, прыгнул на книжную полку, свалил "Капитал" К. Маркса мне на голову, свалился сам и от испуга пробежался по мне, слегка оцарапав живот и подчленный мешочек )))...чем привел меня в чувство (Спасибо Василий)

Материал хорош, мрачен, депресивен и туманен
Go to the top of the page
  Insert nick Quick quote
+Quote Post
post Sep 14 2019, 06:33:51
Post #4

Литр
*
Group: Подсевший
Posts: 73
Releases: 0
On Forums: 9 years 9 months
Thanks: 12 time(s)
Russian Federation


A collection of the single tracks released between late 2018 and late 2019.
Also includes two bonus tracks.
Go to the top of the page
  Insert nick Quick quote
+Quote Post

Reply to this topicStart new topic
2 User(s) are reading this topic (2 Guests and 0 Anonymous Users)
0 Members:

 



- Lo-Fi Version Support form
Copyrights and abuse reports form
Time is now: 19th September 2019 - 00:50:08