Welcome Guest ( Log In | Register )

> Releases Upload / Добавление релизов

Добавить релиз тут / Click here to add release
Рекомендованные обменники / Recommended file shares

> Purasangre - Abducidos De La Realidad (2019), Thrash Metal
post Sep 11 2019, 19:51:20
Post #1

Правь статус, ####!111
**************
Group: Металариец
Posts: 18,520
Releases: 12530
From: Г.Харьков
On Forums: 7 years 4 months
Thanks: 212375 time(s)
Unknown


(IMG:https://metalarea.org/images/audiocovers/2019_Sep/acov_tid327246_thumb.jpg)

*Artist: Purasangre
*Album: Abducidos De La Realidad
*Year: 2019
*Genre: Thrash Metal
*Country: Uruguay (IMG:https://metalarea.org/forum/style_images/flags/Uruguay.png)
*Format: mp3@CBR320kbps
*Size: 120MB

Tracklist:
1. Mundo Enfermo
2. Animal Humano
3. Un Simple Canto
4. Orden A Traves Del Caos
5. Quien Es Quien
6. Despertar
7. Acto Gore
8. No Me Rompa Lo Hue
9. Es Asi
10. Mute (Instrumental)
******************************
Total playing time: 51:32



Extended info
Maximiliano Boglietti Bass, Vocals (backing)
Alessandro Grosso Drums
Gabriel Ferreira Guitars (lead)
See also: Morfina
Fernando García Vocals, Guitars


Technical info
(IMG:https://metalarea.org/images/spectrogram/2019_Sep/73ed88288c00e929e4139cbca5a2f2f3.png)
Input File: 03 - Un Simple Canto.mp3
Channels : 2
Sample Rate : 44100
Precision : 16-bit
Duration : 00:05:01.68 = 13304000 samples = 22625.9 CDDA sectors
File Size : 12.3M
Bit Rate : 326k
Sample Encoding: MPEG audio (layer I, II or III)
Comments :
Title=Un Simple Canto
Artist=Purasangre
Album=Abducidos de la Realidad
Tracknumber=3
Year=2019



Register


Go to the top of the page
  Insert nick Quick quote
+Quote Post
 
Start new topic
Replies (1 - 5)
post Sep 11 2019, 23:55:58
Post #2

\m/
Group Icon
Group: S-moderation team
Posts: 7,671
Releases: 19
From: Петропавловск-Камчатский
On Forums: 10 years 3 months
Thanks: 7185 time(s)
Russian Federation


Мелодик недотрэш. Для такого вокала музон по суровее должен быть.


Thanks:
Go to the top of the page
  Insert nick Quick quote
+Quote Post
post Sep 12 2019, 00:00:39
Post #3

Правь статус, ####!111
**************
Group: Металариец
Posts: 18,520
Releases: 12530
From: Г.Харьков
On Forums: 7 years 4 months
Thanks: 212375 time(s)
Unknown


Cloud Mail 320
Register


Go to the top of the page
  Insert nick Quick quote
+Quote Post
post Sep 12 2019, 10:04:23
Post #4

Group: Дух
Posts: 3
Releases: 0
On Forums: 3 months 1 week
Thanks: 2 time(s)
Unknown


Альбом хорош. Энергичный, немного уругвайский не втыкает, а так то что надо. Олдскульно и задорно.


Go to the top of the page
  Insert nick Quick quote
+Quote Post
post Sep 12 2019, 12:37:49
Post #5

Правь статус, ####!111
**************
Group: Металариец
Posts: 2,610
Releases: 8
From: Dnipro
On Forums: 11 years 2 months
Thanks: 799 time(s)
Ukraine


ЦИТАТА(Satanspell @ Sep 12 2019, 12:04:23) *
Альбом хорош. Энергичный, немного уругвайский не втыкает, а так то что надо. Олдскульно и задорно.

Нет такого языка как уругвайский (IMG:style_emoticons/default/bye.gif) Чему тебя только в школе учили (IMG:style_emoticons/default/15.gif)


Thanks:
(1) Diflock,
Go to the top of the page
  Insert nick Quick quote
+Quote Post
post Sep 15 2019, 09:36:25
Post #6

Шесть Литров
******
Group: Металариец
Posts: 590
Releases: 0
From: South Of Heaven
On Forums: 12 years 1 month
Thanks: 241 time(s)
Ukraine


ЦИТАТА(isvili @ 12th September 2019 - 14:37:49) *
Нет такого языка как уругвайский

- Официально нет. Сохранился язык Чарруа - коренных уругвайцев. (IMG:style_emoticons/default/genius.gif) Чему тебя только в школе учили? (IMG:style_emoticons/default/15.gif)
Go to the top of the page
  Insert nick Quick quote
+Quote Post

Reply to this topicStart new topic
2 User(s) are reading this topic (2 Guests and 0 Anonymous Users)
0 Members:

 



- Lo-Fi Version Support form
Copyrights and abuse reports form
Time is now: 19th September 2019 - 01:18:24