Welcome Guest ( Log In | Register )

> Releases Upload / Добавление релизов

Добавить релиз тут / Click here to add release
Рекомендованные обменники / Recommended file shares

 
Reply to this topicStart new topic
> Dark Sorcerer - Pure Act Of Sorcery [ep] (2019), Black/Thrash Metal/Crossover
post Sep 11 2019, 20:11:35
Post #1

Правь статус, ####!111
**************
Group: Металариец
Posts: 18,519
Releases: 12530
From: Г.Харьков
On Forums: 7 years 4 months
Thanks: 212369 time(s)
Unknown


(IMG:https://metalarea.org/images/audiocovers/2019_Sep/acov_tid327247_thumb.jpg)

*Artist: Dark Sorcerer
*Album: Pure Act Of Sorcery [ep]
*Year: 2019
*Genre: Black/Thrash Metal/Crossover
*Country: United States (IMG:https://metalarea.org/forum/style_images/flags/United%20States.png)
*Format: mp3@CBR320kbps
*Size: 26MB

Tracklist:
1. Bog Wraith 01:26
2. Cavernous Realm 01:48
3. Dead Scroll 01:53
4. Fire Scales 02:13
5. Sorrow of Moldavia 01:44
6. Voodoo Manipulation 01:24
******************************
Total playing time: 10:28



Extended info
Firebreath Bass, Vocals
Despot of the Drums Drums
Dark Mark Guitars


Technical info
(IMG:https://metalarea.org/images/spectrogram/2019_Sep/6ae98f1ad4cae907e9fb8db9aac61114.png)
Input File: 04 Fire Scales.mp3
Channels : 2
Sample Rate : 44100
Precision : 16-bit
Duration : 00:02:13.15 = 5872047 samples = 9986.47 CDDA sectors
File Size : 5.54M
Bit Rate : 333k
Sample Encoding: MPEG audio (layer I, II or III)
Comments :
Title=Fire Scales
Artist=Dark Sorcerer
Album=Pure Act of Sorcery
Tracknumber=4
Year=2019



Register


Go to the top of the page
  Insert nick Quick quote
+Quote Post

Reply to this topicStart new topic
2 User(s) are reading this topic (2 Guests and 0 Anonymous Users)
0 Members:

 



- Lo-Fi Version Support form
Copyrights and abuse reports form
Time is now: 19th September 2019 - 00:50:39