Welcome Guest ( Log In | Register )

> Releases Upload / Добавление релизов

Добавить релиз тут / Click here to add release
Рекомендованные обменники / Recommended file shares

> Lifecurse - The Wolf You Feed Part 1 Ulsiga (2019), Metalcore/Melodic Death Metal
post Sep 11 2019, 20:16:47
Post #1

MDM-Thrash Metal
**************
Group: Металариец
Posts: 8,684
Releases: 599
From: Одесса
On Forums: 12 years 1 month
Thanks: 17310 time(s)
Ukraine


(IMG:http://metalarea.org/images/audiocovers/2019_Sep/acov_tid327248_thumb.jpg)

*Artist: Lifecurse
*Album: The Wolf You Feed Part 1 Ulsiga
*Year: 2019
*Genre: Metalcore/Melodic Death Metal
*Country: United States (IMG:http://metalarea.org/forum/style_images/flags/United%20States.png)
*Format: mp3@CBR320kbps
*Size: 112MB

Tracklist:
01. Hostis Humanis Generis 01:25
02. The Wolf You Feed 05:06
03. Lights Out 05:36
04. Proxy 05:12
05. Smoke & Mirrors 04:10
06. Fortunes 02:25
07. Buzzard Bait 03:10
08. I Thought Hurricane Season Was Over 04:24
09. The Path 03:02
10. The Boy Who Cried Wolf 03:54
11. Time Travelling 05:27
12. Vulgatæ Geographia 01:06
******************************
Total playing time: 44:57


(IMG:http://metalarea.org/images/youtube.png)



Technical info
(IMG:http://metalarea.org/images/spectrogram/2019_Sep/4c91ec3b28007b7121e3e0f71869effc.png)
Input File: 02_lifecurse_the_wolf_you_feed.mp3
Channels : 2
Sample Rate : 44100
Precision : 16-bit
Duration : 00:00:00.31 = 13451 samples = 22.8759 CDDA sectors
File Size : 13.0M
Bit Rate : 342M
Sample Encoding: MPEG audio (layer I, II or III)
Comments :
Title=The Wolf You Feed
Artist=Lifecurse
Album=The Wolf You Feed Part 1: Ulsiga
Tracknumber=2/12
Year=2019
Genre=Metal
Discnumber=1/1



Register


Go to the top of the page
  Insert nick Quick quote
+Quote Post
 
Start new topic
Replies (1 - 1)
post Sep 12 2019, 09:28:07
Post #2

Group: Дух
Posts: 2
Releases: 0
On Forums: 2 years 2 months
Thanks: 0 time(s)
Unknown


Норм металкор. Местами на Bury Tomorrow похоже.
Go to the top of the page
  Insert nick Quick quote
+Quote Post

Reply to this topicStart new topic
2 User(s) are reading this topic (2 Guests and 0 Anonymous Users)
0 Members:

 



- Lo-Fi Version Support form
Copyrights and abuse reports form
Time is now: 19th September 2019 - 01:26:43