Welcome Guest ( Log In | Register )

> Releases Upload / Добавление релизов

Добавить релиз тут / Click here to add release
Рекомендованные обменники / Recommended file shares

 
Reply to this topicStart new topic
> Bloodhymns - Funeral Ascension (2019), Black/Death Metal
post Sep 11 2019, 20:25:45
Post #1

Правь статус, ####!111
**************
Group: Металариец
Posts: 18,520
Releases: 12531
From: Г.Харьков
On Forums: 7 years 4 months
Thanks: 212375 time(s)
Unknown


(IMG:https://metalarea.org/images/audiocovers/2019_Sep/acov_tid327249_thumb.jpg)

*Artist: Bloodhymns
*Album: Funeral Ascension
*Year: 2019
*Genre: Black/Death Metal
*Country: Colombia (IMG:https://metalarea.org/forum/style_images/flags/Colombia.png)
*Format: mp3@CBR320kbps
*Size: 87MB

Tracklist:
01. From Depths Death Calls 00:52
02. Crows 03:05
03. The Invocation 03:22
04. Eschatologist 04:15
05. The Charriot of Triumph 04:26
06. The Return of the Black Death 04:09
07. Funeral Ascension 03:52
08. Unburied 04:27
09. Wrathbringer 04:08
10. Departed Existence 04:30
11. Anima Nigrae Peregrinationis 04:14
******************************
Total playing time: 41:20


(IMG:https://metalarea.org/images/youtube.png)

Technical info
(IMG:https://metalarea.org/images/spectrogram/2019_Sep/8e31076881eb66dfaea8b204816b460f.png)
Input File: 04. Eschatologist.mp3
Channels : 2
Sample Rate : 44100
Precision : 16-bit
Duration : 00:04:15.44 = 11264992 samples = 19158.1 CDDA sectors
File Size : 10.4M
Bit Rate : 324k
Sample Encoding: MPEG audio (layer I, II or III)
Comments :
Title=Eschatologist
Artist=Bloodhymns
Album=Funeral Ascension
Tracknumber=4/11
Year=2019
Genre=17
Discnumber=1/1



Register


Go to the top of the page
  Insert nick Quick quote
+Quote Post

Reply to this topicStart new topic
1 User(s) are reading this topic (1 Guests and 0 Anonymous Users)
0 Members:

 



- Lo-Fi Version Support form
Copyrights and abuse reports form
Time is now: 19th September 2019 - 01:30:20