Welcome Guest ( Log In | Register )

> Releases Upload / Добавление релизов

Добавить релиз тут / Click here to add release
Рекомендованные обменники / Recommended file shares

> Pinewalker - Migration (2019), Death/Doom Metal/Sludge
post Sep 11 2019, 21:04:36
Post #1

Правь статус, ####!111
**************
Group: Металариец
Posts: 18,519
Releases: 12530
From: Г.Харьков
On Forums: 7 years 4 months
Thanks: 212369 time(s)
Unknown


(IMG:https://metalarea.org/images/audiocovers/2019_Sep/acov_tid327250_thumb.jpg)

*Artist: Pinewalker
*Album: Migration
*Year: 2019
*Genre: Death/Doom Metal/Sludge
*Country: United States (IMG:https://metalarea.org/forum/style_images/flags/United%20States.png)
*Format: mp3@CBR320kbps
*Size: 127MB

Tracklist:
1. Sentinel 06:56
2. Bone Collector 03:22
3. Burning Earth 03:37
4. Maelstrom 09:06
5. Space Witch 08:19 instrumental
6. Self Vs. Self 03:55
7. The Thaw 08:16
******************************
Total playing time: 43:31




Extended info
Nate Perkins - Drums
Tarran Mead - Guitar & Vocals
Jason Kennington - Guitar & Vocals
Sam Roe - Lead Guitar & Vocals
Ethan Jentzsch - Bass


Technical info
(IMG:https://metalarea.org/images/spectrogram/2019_Sep/ba4c1e70bde5d78d42dc784cd4251cf6.png)
Input File: 04 - Maelstrom.mp3
Channels : 2
Sample Rate : 44100
Precision : 16-bit
Duration : 00:09:06.77 = 24112689 samples = 41008 CDDA sectors
File Size : 26.2M
Bit Rate : 383k
Sample Encoding: MPEG audio (layer I, II or III)
Comments :
Title=Maelstrom
Artist=Pinewalker
Album=Migration
Tracknumber=4
Year=2019



Register


Go to the top of the page
  Insert nick Quick quote
+Quote Post
 
Start new topic
Replies (1 - 1)
post Sep 12 2019, 00:23:36
Post #2

Правь статус, ####!111
**************
Group: Металариец
Posts: 18,519
Releases: 12530
From: Г.Харьков
On Forums: 7 years 4 months
Thanks: 212369 time(s)
Unknown


Cloud Mail 320
Register


Thanks:
Go to the top of the page
  Insert nick Quick quote
+Quote Post

Reply to this topicStart new topic
1 User(s) are reading this topic (1 Guests and 0 Anonymous Users)
0 Members:

 



- Lo-Fi Version Support form
Copyrights and abuse reports form
Time is now: 19th September 2019 - 00:49:32