Welcome Guest ( Log In | Register )

> Releases Upload / Добавление релизов

Добавить релиз тут / Click here to add release
Рекомендованные обменники / Recommended file shares

 
Reply to this topicStart new topic
> Neutral - Utopía De Los Inocentes (2019), Thrash Metal/Crossover (D4)
post Sep 11 2019, 21:23:42
Post #1

Правь статус, ####!111
**************
Group: Металариец
Posts: 18,519
Releases: 12530
From: Г.Харьков
On Forums: 7 years 4 months
Thanks: 212369 time(s)
Unknown


(IMG:https://metalarea.org/images/audiocovers/2019_Sep/acov_tid327251_thumb.jpg)

*Artist: Neutral
*Album: Utopía De Los Inocentes
*Year: 2019
*Genre: Thrash Metal/Crossover
*Country: Colombia (IMG:https://metalarea.org/forum/style_images/flags/Colombia.png)
*Format: mp3@CBR320kbps
*Size: 70MB

Tracklist:
1. Intro 00:51
2. Neutral 00:58
3. Pensamientos Ignorantes 02:07
4. Cifras De Muerte 02:50
5. Raúl 02:38
6. Difunta Ciudad 02:03
7. Señora Justicia 02:14
8. Compañero 03:15
9. Utopía De Los Inocentes (Preludio) 02:50
10. En La Tierra Del Señor 03:34
11. La Paz 01:16
12. Cadáveres 01:51
13. Los Agentes 03:40
******************************
Total playing time: 30:07




Extended info
Santiago Montoya: Voz
Sebastian Jaramillo: Guitarra
Daniel Rios: Guitarra
Jeronimo Ortega: Bajo
Brandon Villegas: Bateria


Technical info
(IMG:https://metalarea.org/images/spectrogram/2019_Sep/701dd5af4b6afc6b76a2867edbeccf2d.png)
Input File: 04 - Cifras De Muerte.mp3
Channels : 2
Sample Rate : 44100
Precision : 16-bit
Duration : 00:02:50.43 = 7516051 samples = 12782.4 CDDA sectors
File Size : 6.91M
Bit Rate : 325k
Sample Encoding: MPEG audio (layer I, II or III)
Comments :
Title=Cifras De Muerte
Artist=neutral
Album=Utopía De Los Inocentes
Tracknumber=4
Year=2019-04-13
Genre=Metal
Discnumber=1



Register


Go to the top of the page
  Insert nick Quick quote
+Quote Post

Reply to this topicStart new topic
2 User(s) are reading this topic (2 Guests and 0 Anonymous Users)
0 Members:

 



- Lo-Fi Version Support form
Copyrights and abuse reports form
Time is now: 19th September 2019 - 00:49:55