Welcome Guest ( Log In | Register )

> Releases Upload / Добавление релизов

Добавить релиз тут / Click here to add release
Рекомендованные обменники / Recommended file shares

 
Reply to this topicStart new topic
> Redsphere - Facts [ep] (2017), Thrash/Death Metal
post Sep 11 2019, 23:16:57
Post #1

Правь статус, ####!111
**************
Group: Металариец
Posts: 18,519
Releases: 12530
From: Г.Харьков
On Forums: 7 years 4 months
Thanks: 212369 time(s)
Unknown


(IMG:https://metalarea.org/images/audiocovers/2019_Sep/acov_tid327254_thumb.jpg)

*Artist: Redsphere
*Album: Facts [ep]
*Year: 2017
*Genre: Thrash/Death Metal
*Country: New Caledonia (IMG:https://metalarea.org/forum/style_images/flags/New%20Caledonia.png)
*Format: mp3@CBR320kbps
*Size: 47MB

Tracklist:
1. Intro 00:26
2. Mythomaniac 02:23
3. Burn or Fall 03:42
4. Scratches on the Wall 03:11
5. Plastic Heart 03:20
6. Sound of Despair 02:26
7. Falling Mirrors 04:29
******************************
Total playing time: 19:57




Extended info
Bruno Fontebasso Bass
See also: Gautama
Mickael Robert Drums
Alexandre Verdier Guitars
See also: Gautama
Gaetan Sartre Guitars
Clément Bouchet Vocals


Technical info
(IMG:https://metalarea.org/images/spectrogram/2019_Sep/53c91715d2634b30a6dadd6d1d3c0031.png)
Input File: 03 - Burn or Fall.mp3
Channels : 2
Sample Rate : 44100
Precision : 16-bit
Duration : 00:03:42.92 = 9830552 samples = 16718.6 CDDA sectors
File Size : 9.05M
Bit Rate : 325k
Sample Encoding: MPEG audio (layer I, II or III)
Comments :
Title=Burn or Fall
Artist=Redsphere
Album=Facts
Tracknumber=3
Year=2017-01-06
Discnumber=1



Register


Go to the top of the page
  Insert nick Quick quote
+Quote Post

Reply to this topicStart new topic
1 User(s) are reading this topic (1 Guests and 0 Anonymous Users)
0 Members:

 



- Lo-Fi Version Support form
Copyrights and abuse reports form
Time is now: 19th September 2019 - 00:50:47