Welcome Guest ( Log In | Register )

> Releases Upload / Добавление релизов

Добавить релиз тут / Click here to add release
Рекомендованные обменники / Recommended file shares

 
Reply to this topicStart new topic
> Vetrarmyrkur - Ensomhed Af Den Glemte Liv [compilation] (2016), Raw Black Metal
post Sep 11 2019, 23:48:58
Post #1

.....
**************
Group: Металариец
Posts: 2,790
Releases: 113
On Forums: 10 years 1 month
Thanks: 3956 time(s)
Unknown


(IMG:http://metalarea.org/images/audiocovers/2019_Sep/acov_tid327255_thumb.jpg)

*Artist: Vetrarmyrkur
*Album: Ensomhed Af Den Glemte Liv [compilation]
*Year: 2016
*Genre: Raw Black Metal
*Country: Faroe Islands (IMG:http://metalarea.org/forum/style_images/flags/Faroe%20Islands.png)
*Format: mp3@CBR320kbps
*Size: 115MB

Tracklist:
1. Death Dreams 02:57
2. A Misanthropic Vision 02:36
3. Memories From A Certain Death 02:37
4. Funeral Winds 03:07
5. Blackened Might 03:29
6. In Eternal Night 03:37
7. Burning Wrath 03:28
8. Nocturnal Funeral 02:56
9. Death Dreams (Remastered) 02:57
10. A Misanthropic Vision (Remastered) 02:36
11. Memories From A Certain Death (Remastered) 02:37
12. Funeral Winds (Remastered) 03:07
13. Blackened Might (Remastered) 03:29
14. In Eternal Night (Remastered) 03:37
15. Burning Wrath (Remastered) 03:28
16. Nocturnal Funeral (Remastered) 02:56
******************************
Total playing time: 49:34


(IMG:http://metalarea.org/images/youtube.png)
(IMG:http://metalarea.org/images/youtube.png)

Extended info
Metalarea exclusive!

Компиляция сырого блэк метала с Фарерских островов. Компиляция 2-х кассетных демо проекта. Первая часть компиляции - оригинальные трэки, рипнутые с кассет. Вторая часть компиляции - их ремастированная версия

Спектры - особенность релиза. Это честные 320 из флака


Technical info
(IMG:http://metalarea.org/images/spectrogram/2019_Sep/1cb52abd0ab000b8c7df149d64e3f402.png)
Input File: Vetrarmyrkur - 08 Nocturnal Funeral.mp3
Channels : 2
Sample Rate : 44100
Precision : 16-bit
Duration : 00:02:56.99 = 7805215 samples = 13274.2 CDDA sectors
File Size : 7.16M
Bit Rate : 324k
Sample Encoding: MPEG audio (layer I, II or III)
Comments :
Title=Nocturnal Funeral
Artist=Vetrarmyrkur
Album=STAR001: Vetrarmyrkur ‎– Ensomhed Af Den Glemte Liv
Tracknumber=8
Year=2016



Register


Go to the top of the page
  Insert nick Quick quote
+Quote Post

Reply to this topicStart new topic
1 User(s) are reading this topic (1 Guests and 0 Anonymous Users)
0 Members:

 



- Lo-Fi Version Support form
Copyrights and abuse reports form
Time is now: 19th September 2019 - 01:28:04