Welcome Guest ( Log In | Register )

> Chronik - Der Letzte Abschied (2017), Melodic Black Metal
post Sep 11 2019, 23:58:10
Post #1

Правь статус, ####!111
**************
Group: Металариец
Posts: 20,731
Releases: 14156
From: Г.Харьков
On Forums: 7 years 9 months
Thanks: 250247 time(s)
Unknown


(IMG:https://metalarea.org/images/audiocovers/2019_Sep/acov_tid327258_thumb.jpg)

*Artist: Chronik
*Album: Der Letzte Abschied
*Year: 2017
*Genre: Melodic Black Metal
*Country: Germany (IMG:https://metalarea.org/forum/style_images/flags/Germany.png)
*Format: mp3@CBR320kbps
*Size: 115MB

Tracklist:
1. Der letzte Abschied (Prolog) 11:37
2. Es beginnt 05:16
3. Erstes Opfer 04:16
4. Stumme Zeugen 05:20
5. Erkenntnis 04:31
6. Die Jagd 06:19
7. Ende eines Schicksals 09:12
8. Der letzte Abschied (Epilog) 09:21
******************************
Total playing time: 55:52



Extended info
Atna Bass (2012-present)
See also: ex-Macht
Bloodgard Guitars, Vocals (2012-present)
See also: ex-Macht, Bloodgard
Vidd Keyboards (2012-present)
See also: ex-Macht


Technical info
(IMG:https://metalarea.org/images/spectrogram/2019_Sep/6bc0f52f4500b155da0287845d9c6973.png)
Input File: 04 - Stumme Zeugen.mp3
Channels : 2
Sample Rate : 44100
Precision : 16-bit
Duration : 00:05:20.57 = 14136961 samples = 24042.5 CDDA sectors
File Size : 13.0M
Bit Rate : 323k
Sample Encoding: MPEG audio (layer I, II or III)
Comments :
Title=Stumme Zeugen
Artist=Chronik
Album=Der Letzte Abschied
Tracknumber=4
Year=2017-02-22
Discnumber=1



Register


Go to the top of the page
  Insert nick Quick quote
+Quote Post
 
Start new topic
Replies (1 - 2)
post Sep 12 2019, 12:44:11
Post #2

Правь статус, ####!111
**************
Group: Металариец
Posts: 2,855
Releases: 8
From: Dnipro
On Forums: 11 years 7 months
Thanks: 910 time(s)
Ukraine


С первого взгляда показалось что на облоге мужик в сауне на полку попариться лезет (IMG:style_emoticons/default/1488.gif) (IMG:style_emoticons/default/19.gif)

Полный альбом

Go to the top of the page
  Insert nick Quick quote
+Quote Post
post Oct 3 2019, 17:51:24
Post #3

Восемь Литров
********
Group: Металариец
Posts: 840
Releases: 0
From: Bayuvaria, Germany
On Forums: 13 years 1 month
Thanks: 54 time(s)
Germany


Great Album !! (IMG:style_emoticons/default/10.gif)
Go to the top of the page
  Insert nick Quick quote
+Quote Post

Reply to this topicStart new topic
1 User(s) are reading this topic (1 Guests and 0 Anonymous Users)
0 Members:

 



- Lo-Fi Version Support form
Copyrights and abuse reports form
Time is now: 29th February 2020 - 08:01:46