Welcome Guest ( Log In | Register )

 
Reply to this topicStart new topic
> Slavestate - Critical Mass (2019), Sludge/Death Metal/Grindcore
post Sep 12 2019, 10:31:57
Post #1

Serial Uploader
Group Icon
Group: V.I.P
Posts: 36,463
Releases: 34651
From: Lithuania
On Forums: 11 years 5 months
Thanks: 404831 time(s)
Lithuania


(IMG:https://metalarea.org/images/audiocovers/2019_Sep/acov_tid327263_thumb.jpg)

*Artist: Slavestate
*Album: Critical Mass
*Year: 2019
*Genre: Sludge/Death Metal/Grindcore
*Country: Belgium (IMG:https://metalarea.org/forum/style_images/flags/Belgium.png)
*Format: mp3@CBR320kbps
*Size: 78MB

Tracklist:
01. Chasing Memories
02. Monument
03. Perfect Product
04. Rothschild
05. Once A Giant
06. A Sense Removed
07. Judgement
08. Verdict
09. Mindrot
10. Death (Desolation)
11. You Will Be Buried
12. Critical Mass
******************************
Total playing time: 33:55



(IMG:https://metalarea.org/images/youtube.png)

Technical info
(IMG:https://metalarea.org/images/spectrogram/2019_Sep/4c8c1271a2cf696611641efbcf56d05e.png)
Input File: 02 - Monument.mp3
Channels : 2
Sample Rate : 44100
Precision : 16-bit
Duration : 00:02:37.09 = 6927493 samples = 11781.5 CDDA sectors
File Size : 6.83M
Bit Rate : 348k
Sample Encoding: MPEG audio (layer I, II or III)
Comments :
Title=Monument
Artist=Slavestate
Album=Critical Mass
Tracknumber=2
Year=2019
Genre=Metal
Discnumber=1



Register


Go to the top of the page
  Insert nick Quick quote
+Quote Post

Reply to this topicStart new topic
1 User(s) are reading this topic (1 Guests and 0 Anonymous Users)
0 Members:

 



- Lo-Fi Version Support form
Copyrights and abuse reports form
Time is now: 19th November 2019 - 01:26:43