Welcome Guest ( Log In | Register )

> 

Здесь релизы с живыми прямыми ссылками на lossless

> Eschaton - Death Obsession (2019), Technical Death Metal/Deathcore (D)
post Sep 12 2019, 11:37:51
Post #1

Serial Uploader
Group Icon
Group: V.I.P
Posts: 36,306
Releases: 34500
From: Lithuania
On Forums: 11 years 4 months
Thanks: 401573 time(s)
Lithuania


(IMG:https://metalarea.org/images/audiocovers/2019_Sep/acov_tid327268_thumb.jpg)

*Artist: Eschaton
*Album: Death Obsession
*Year: 2019
*Genre: Technical Death Metal/Deathcore
*Country: Italy (IMG:https://metalarea.org/forum/style_images/flags/Italy.png)
*Format: mp3@CBR320kbps
*Size: 77MB

Tracklist:
01. Born into Shadows 05:25
02. Tides of Betrayal 04:29
03. Death Obsession 04:17
04. Exordia 01:50
05. Umbra Totalis 03:43
06. Wake of the Ophidian 03:47
07. Of Freedom and Deception 02:48
08. Imperial 02:53
09. Seal of the Curse 04:16
******************************
Total playing time: 33:28

(IMG:https://metalarea.org/images/myspace.png)

(IMG:https://metalarea.org/images/youtube.png)

Technical info
(IMG:https://metalarea.org/images/spectrogram/2019_Sep/e7ff350dc810760a1dc76b6b40fd57a2.png)
Input File: 2 - Tides of Betrayal.mp3
Channels : 2
Sample Rate : 44100
Precision : 16-bit
Duration : 00:04:29.73 = 11895049 samples = 20229.7 CDDA sectors
File Size : 10.9M
Bit Rate : 322k
Sample Encoding: MPEG audio (layer I, II or III)
Comments :
Title=Tides of Betrayal
Artist=Eschaton
Album=Death Obsession
Tracknumber=2
Year=2019
Genre=Metal
Discnumber=1



Register


Go to the top of the page
  Insert nick Quick quote
+Quote Post
 
Start new topic
Replies (1 - 5)
post Sep 12 2019, 19:50:32
Post #2

Литр
*
Group: Подсевший
Posts: 76
Releases: 0
On Forums: 11 years 4 months
Thanks: 12 time(s)
Russian Federation


Эсхатон на Эсхатоне и Эсхатоном погоняет я к тому что вот эти ( Eschaton - Sentinel Apocalypse (2015) как одна и таже группа только страна USA, эти (https://metalarea.org/forum/index.php?showtopic=296200&hl=Eschaton)- словаки (IMG:style_emoticons/default/crazy.gif) , есть ещё белорусы, греки , австрийцы, бразильцы...... (IMG:style_emoticons/default/crazy.gif) Да кстати просьба бросить ещё на какой нибудь обменник а то меге лимит закончен просят денежек, и по музыке вроде послушать можно превьюха более-менее понравилась!
Go to the top of the page
  Insert nick Quick quote
+Quote Post
post Sep 12 2019, 20:45:43
Post #3

Литр
*
Group: Подсевший
Posts: 76
Releases: 0
On Forums: 11 years 4 months
Thanks: 12 time(s)
Russian Federation


А словаки {Eschaton - Ultimum Exitium (2017)} - то оказались на поверку просто шикарным нищтяком!!!! (IMG:style_emoticons/default/headcrab.png) Как бы не сказать что шедевр но твёрдая четвёрка точно!!!!!!!!!!!!!!!!!!
Go to the top of the page
  Insert nick Quick quote
+Quote Post
post Sep 13 2019, 10:40:55
Post #4

hearer & reader
**************
Group: Металариец
Posts: 8,131
Releases: 105
From: Moscow
On Forums: 12 years 1 month
Thanks: 7599 time(s)
Russian Federation


USA, not Italy
https://www.metal-archives.com/bands/Eschaton/3540332311


Thanks:
(1) Metalass,
Go to the top of the page
  Insert nick Quick quote
+Quote Post
post Sep 24 2019, 13:45:00
Post #5

Четыре Литра
****
Group: Металариец
Posts: 350
Releases: 14
On Forums: 10 years 11 months
Thanks: 296 time(s)
Russian Federation


ЦИТАТА(andris @ 12th September 2019 - 21:50:32) *
просьба бросить ещё на какой нибудь обменник

Зеркало 320:
Register


Thanks:
(1) andris,
Go to the top of the page
  Insert nick Quick quote
+Quote Post
post Sep 24 2019, 15:36:44
Post #6

Четыре Литра
****
Group: Металариец
Posts: 350
Releases: 14
On Forums: 10 years 11 months
Thanks: 296 time(s)
Russian Federation


FLAC tracks
Register


Thanks:
(1) andris,
Go to the top of the page
  Insert nick Quick quote
+Quote Post

Reply to this topicStart new topic
1 User(s) are reading this topic (1 Guests and 0 Anonymous Users)
0 Members:

 



- Lo-Fi Version Support form
Copyrights and abuse reports form
Time is now: 21st October 2019 - 01:22:07