Welcome Guest ( Log In | Register )

> 

Здесь релизы с живыми прямыми ссылками на lossless

> Betraying The Martyrs - Rapture (2019), Progressive Deathcore (D5)
post Sep 12 2019, 11:54:19
Post #1

Serial Uploader
Group Icon
Group: V.I.P
Posts: 36,306
Releases: 34500
From: Lithuania
On Forums: 11 years 4 months
Thanks: 401578 time(s)
Lithuania


(IMG:https://metalarea.org/images/audiocovers/2019_Sep/acov_tid327271_thumb.jpg)

*Artist: Betraying The Martyrs
*Album: Rapture
*Year: 2019
*Genre: Progressive Deathcore
*Country: France (IMG:https://metalarea.org/forum/style_images/flags/France.png)
*Format: mp3@CBR320kbps
*Size: 94MB

Tracklist:
01. Ignite
02. Eternal Machine
03. Down
04. The Iron Gates
05. Parasite
06. The Sound of Letting You Go
07. The Swarm
08. Monster
09. Imagine
10. Incarcerated
11. Rapture
******************************
Total playing time: 40:52


(IMG:https://metalarea.org/images/youtube.png)

Technical info
(IMG:https://metalarea.org/images/spectrogram/2019_Sep/a07026e78b644aede000900f8460be5e.png)
Input File: 2 - Eternal Machine.mp3
Channels : 2
Sample Rate : 44100
Precision : 16-bit
Duration : 00:04:28.53 = 11842041 samples = 20139.5 CDDA sectors
File Size : 10.8M
Bit Rate : 322k
Sample Encoding: MPEG audio (layer I, II or III)
Comments :
Title=Eternal Machine
Artist=Betraying the Martyrs
Album=Rapture
Tracknumber=2
Year=2019
Genre=Rock/Metal
Discnumber=1



Register


Go to the top of the page
  Insert nick Quick quote
+Quote Post
 
Start new topic
Replies (1 - 6)
post Sep 12 2019, 18:36:07
Post #2

Три Литра
***
Group: Завсегдатай
Posts: 275
Releases: 0
From: Москва
On Forums: 11 years 1 month
Thanks: 42 time(s)
Russian Federation


заепочек
Go to the top of the page
  Insert nick Quick quote
+Quote Post
post Sep 13 2019, 06:03:35
Post #3

Три Литра
***
Group: Завсегдатай
Posts: 252
Releases: 0
From: Ташкент
On Forums: 11 years 8 months
Thanks: 66 time(s)
Uzbekistan


Да тут больше металкора, чем дэткора.
Go to the top of the page
  Insert nick Quick quote
+Quote Post
post Sep 13 2019, 14:48:23
Post #4

Два Литра
**
Group: Завсегдатай
Posts: 122
Releases: 0
From: Лыткарино
On Forums: 5 months 1 week
Thanks: 32 time(s)
Russian Federation


Всё сделано на уровне, но почти ничего не запомнилось. Не понравился "козлиный" чистый вокал.
Go to the top of the page
  Insert nick Quick quote
+Quote Post
post Sep 30 2019, 14:05:51
Post #5

Два Литра
**
Group: Завсегдатай
Posts: 127
Releases: 0
From: TheМля
On Forums: 13 years 3 weeks
Thanks: 43 time(s)
Belarus


Третий трэк вполне себе молодежный хит
Go to the top of the page
  Insert nick Quick quote
+Quote Post
post Oct 8 2019, 15:44:25
Post #6

Шесть Литров
******
Group: Металариец
Posts: 667
Releases: 10
On Forums: 10 years 9 months
Thanks: 162 time(s)
Germany


please, re-upload.
Go to the top of the page
  Insert nick Quick quote
+Quote Post
post Oct 8 2019, 15:57:51
Post #7


Group Icon
Group: S-moderation team
Posts: 12,082
Releases: 1439
From: Zagreb
On Forums: 8 years 7 months
Thanks: 52756 time(s)
Croatia


Register


Thanks:
Go to the top of the page
  Insert nick Quick quote
+Quote Post

Reply to this topicStart new topic
1 User(s) are reading this topic (1 Guests and 0 Anonymous Users)
0 Members:

 



- Lo-Fi Version Support form
Copyrights and abuse reports form
Time is now: 21st October 2019 - 01:55:25