Welcome Guest ( Log In | Register )

> 

Здесь релизы с живыми прямыми ссылками на lossless

> Betraying The Martyrs - Rapture (2019), Progressive Deathcore (D5)
post Sep 12 2019, 11:54:19
Post #1

Serial Uploader
Group Icon
Group: V.I.P
Posts: 37,124
Releases: 35308
From: Lithuania
On Forums: 11 years 11 months
Thanks: 419332 time(s)
Lithuania


(IMG:https://metalarea.org/images/audiocovers/2019_Sep/acov_tid327271_thumb.jpg)

*Artist: Betraying The Martyrs
*Album: Rapture
*Year: 2019
*Genre: Progressive Deathcore
*Country: France (IMG:https://metalarea.org/forum/style_images/flags/France.png)
*Format: mp3@CBR320kbps
*Size: 94MB

Tracklist:
01. Ignite
02. Eternal Machine
03. Down
04. The Iron Gates
05. Parasite
06. The Sound of Letting You Go
07. The Swarm
08. Monster
09. Imagine
10. Incarcerated
11. Rapture
******************************
Total playing time: 40:52


(IMG:https://metalarea.org/images/youtube.png)

Technical info
(IMG:https://metalarea.org/images/spectrogram/2019_Sep/a07026e78b644aede000900f8460be5e.png)
Input File: 2 - Eternal Machine.mp3
Channels : 2
Sample Rate : 44100
Precision : 16-bit
Duration : 00:04:28.53 = 11842041 samples = 20139.5 CDDA sectors
File Size : 10.8M
Bit Rate : 322k
Sample Encoding: MPEG audio (layer I, II or III)
Comments :
Title=Eternal Machine
Artist=Betraying the Martyrs
Album=Rapture
Tracknumber=2
Year=2019
Genre=Rock/Metal
Discnumber=1



Register


Go to the top of the page
  Insert nick Quick quote
+Quote Post
 
Start new topic
Replies (1 - 9)
post Sep 12 2019, 18:36:07
Post #2

Четыре Литра
****
Group: Металариец
Posts: 310
Releases: 0
From: Москва
On Forums: 11 years 8 months
Thanks: 56 time(s)
Russian Federation


заепочек
Go to the top of the page
  Insert nick Quick quote
+Quote Post
post Sep 13 2019, 06:03:35
Post #3

Четыре Литра
****
Group: Металариец
Posts: 348
Releases: 0
From: Ташкент
On Forums: 12 years 3 months
Thanks: 99 time(s)
Uzbekistan


Да тут больше металкора, чем дэткора.
Go to the top of the page
  Insert nick Quick quote
+Quote Post
post Sep 13 2019, 14:48:23
Post #4

Четыре Литра
****
Group: Металариец
Posts: 301
Releases: 0
From: Лыткарино
On Forums: 1 year 2 weeks
Thanks: 71 time(s)
Russian Federation


Всё сделано на уровне, но почти ничего не запомнилось. Не понравился "козлиный" чистый вокал.
Go to the top of the page
  Insert nick Quick quote
+Quote Post
post Sep 30 2019, 14:05:51
Post #5

Два Литра
**
Group: Завсегдатай
Posts: 145
Releases: 0
From: TheМля
On Forums: 13 years 8 months
Thanks: 53 time(s)
Belarus


Третий трэк вполне себе молодежный хит
Go to the top of the page
  Insert nick Quick quote
+Quote Post
post Oct 8 2019, 15:44:25
Post #6

Шесть Литров
******
Group: Металариец
Posts: 695
Releases: 10
On Forums: 11 years 4 months
Thanks: 162 time(s)
Germany


please, re-upload.
Go to the top of the page
  Insert nick Quick quote
+Quote Post
post Oct 8 2019, 15:57:51
Post #7

Group Icon
Group: S-moderation team
Posts: 15,559
Releases: 1440
From: Zagreb
On Forums: 9 years 3 months
Thanks: 69163 time(s)
Croatia


Register


Go to the top of the page
  Insert nick Quick quote
+Quote Post
post Dec 29 2019, 20:38:13
Post #8

...
**************
Group: Металариец
Posts: 4,923
Releases: 512
From: МОРсквы
On Forums: 13 years 7 months
Thanks: 7559 time(s)
Russian Federation


мда, а у Аморфиса такой вокал всем нравился и "козлиным" не считался... да и тут таковым не является.
Go to the top of the page
  Insert nick Quick quote
+Quote Post
post Dec 29 2019, 21:42:21
Post #9

Ледоруб
**************
Group: Металариец
Posts: 25,440
Releases: 0
From: Санкт-Петербург
On Forums: 10 years 8 months
Thanks: 8858 time(s)
Russian Federation


А вот скачаю.
Go to the top of the page
  Insert nick Quick quote
+Quote Post
post Dec 31 2019, 12:42:09
Post #10

Ледоруб
**************
Group: Металариец
Posts: 25,440
Releases: 0
From: Санкт-Петербург
On Forums: 10 years 8 months
Thanks: 8858 time(s)
Russian Federation


Дэткора нет, прога тоже, зато есть клёвые кнопки.
Go to the top of the page
  Insert nick Quick quote
+Quote Post

Reply to this topicStart new topic
1 User(s) are reading this topic (1 Guests and 0 Anonymous Users)
0 Members:

 



- Lo-Fi Version Support form
Copyrights and abuse reports form
Time is now: 30th May 2020 - 13:51:22