Welcome Guest ( Log In | Register )

> 

Здесь релизы с живыми прямыми ссылками на lossless

> (Echo) - Below The Cover Of Clouds (2019), Melodic Death/Doom Metal
post Sep 12 2019, 13:04:20
Post #1

Serial Uploader
Group Icon
Group: V.I.P
Posts: 36,306
Releases: 34500
From: Lithuania
On Forums: 11 years 4 months
Thanks: 401568 time(s)
Lithuania


(IMG:https://metalarea.org/images/audiocovers/2019_Sep/acov_tid327283_thumb.jpg)

*Artist: (Echo)
*Album: Below The Cover Of Clouds
*Year: 2019
*Genre: Melodic Death/Doom Metal
*Country: Italy (IMG:https://metalarea.org/forum/style_images/flags/Italy.png)
*Format: mp3@CBR320kbps
*Size: 127MB

Tracklist:
01. (Y)our Warmth 11:05
02. Glimpses and Fear 08:45
03. Culmine 2:18 04:25
04. Blind Snow 08:49
05. My Burden 07:04
06. The Ferryman 08:16
07. Awakening 06:50
******************************
Total playing time: 57:32




(IMG:https://metalarea.org/images/youtube.png)

Technical info
(IMG:https://metalarea.org/images/spectrogram/2019_Sep/f9fe4eda25be63ffef95ce71b7752d57.png)
Input File: 2 - Glimpses and Fear.mp3
Channels : 2
Sample Rate : 44100
Precision : 16-bit
Duration : 00:08:45.09 = 23156469 samples = 39381.8 CDDA sectors
File Size : 21.1M
Bit Rate : 321k
Sample Encoding: MPEG audio (layer I, II or III)
Comments :
Title=Glimpses and Fear
Artist=(Echo)
Album=Below the Cover of Clouds
Tracknumber=2
Year=2019
Genre=Metal
Discnumber=1



Register


Go to the top of the page
  Insert nick Quick quote
+Quote Post
 
Start new topic
Replies (1 - 5)
post Sep 22 2019, 06:18:28
Post #2

Ъ
**************
Group: Металариец
Posts: 9,713
Releases: 9
On Forums: 10 years 9 months
Thanks: 1903 time(s)
Sweden


Не осилил до конца, очень тягомотный у них мелодик дум, МДМ тут не в тему вписали.
Go to the top of the page
  Insert nick Quick quote
+Quote Post
post Sep 26 2019, 19:23:51
Post #3

####!111
**************
Group: Металариец
Posts: 3,750
Releases: 125
From: The Mountain Of DOOM
On Forums: 12 years 1 week
Thanks: 5267 time(s)
Russian Federation


Неплохой осенний фоновый думец, но хуковых моментов в сравнении с их же Devoid of Illusions не хватает. До Cold Insight тоже не дотягивает
Go to the top of the page
  Insert nick Quick quote
+Quote Post
post Oct 8 2019, 15:40:40
Post #4

Шесть Литров
******
Group: Металариец
Posts: 667
Releases: 10
On Forums: 10 years 9 months
Thanks: 162 time(s)
Germany


please, re-upload.
Go to the top of the page
  Insert nick Quick quote
+Quote Post
post Oct 8 2019, 16:01:01
Post #5


Group Icon
Group: S-moderation team
Posts: 12,082
Releases: 1439
From: Zagreb
On Forums: 8 years 7 months
Thanks: 52756 time(s)
Croatia


Register


Go to the top of the page
  Insert nick Quick quote
+Quote Post
post Oct 10 2019, 21:45:32
Post #6

Мегаманьяк
***********
Group: Металариец
Posts: 1,607
Releases: 0
From: Харьков
On Forums: 10 years 3 weeks
Thanks: 639 time(s)
Ukraine


Обложка симпатичная.
Go to the top of the page
  Insert nick Quick quote
+Quote Post

Reply to this topicStart new topic
1 User(s) are reading this topic (1 Guests and 0 Anonymous Users)
0 Members:

 



- Lo-Fi Version Support form
Copyrights and abuse reports form
Time is now: 21st October 2019 - 00:41:51