Welcome Guest ( Log In | Register )

> 

Здесь релизы с живыми прямыми ссылками на lossless

> (Echo) - Below The Cover Of Clouds (2019), Melodic Death/Doom Metal
post Sep 12 2019, 13:04:20
Post #1

Serial Uploader
Group Icon
Group: V.I.P
Posts: 37,124
Releases: 35308
From: Lithuania
On Forums: 11 years 11 months
Thanks: 419325 time(s)
Lithuania


(IMG:https://metalarea.org/images/audiocovers/2019_Sep/acov_tid327283_thumb.jpg)

*Artist: (Echo)
*Album: Below The Cover Of Clouds
*Year: 2019
*Genre: Melodic Death/Doom Metal
*Country: Italy (IMG:https://metalarea.org/forum/style_images/flags/Italy.png)
*Format: mp3@CBR320kbps
*Size: 127MB

Tracklist:
01. (Y)our Warmth 11:05
02. Glimpses and Fear 08:45
03. Culmine 2:18 04:25
04. Blind Snow 08:49
05. My Burden 07:04
06. The Ferryman 08:16
07. Awakening 06:50
******************************
Total playing time: 57:32




(IMG:https://metalarea.org/images/youtube.png)

Technical info
(IMG:https://metalarea.org/images/spectrogram/2019_Sep/f9fe4eda25be63ffef95ce71b7752d57.png)
Input File: 2 - Glimpses and Fear.mp3
Channels : 2
Sample Rate : 44100
Precision : 16-bit
Duration : 00:08:45.09 = 23156469 samples = 39381.8 CDDA sectors
File Size : 21.1M
Bit Rate : 321k
Sample Encoding: MPEG audio (layer I, II or III)
Comments :
Title=Glimpses and Fear
Artist=(Echo)
Album=Below the Cover of Clouds
Tracknumber=2
Year=2019
Genre=Metal
Discnumber=1



Register


Go to the top of the page
  Insert nick Quick quote
+Quote Post
 
Start new topic
Replies (1 - 6)
post Sep 22 2019, 06:18:28
Post #2

Ъ
**************
Group: Металариец
Posts: 10,073
Releases: 9
On Forums: 11 years 4 months
Thanks: 2016 time(s)
Sweden


Не осилил до конца, очень тягомотный у них мелодик дум, МДМ тут не в тему вписали.
Go to the top of the page
  Insert nick Quick quote
+Quote Post
post Sep 26 2019, 19:23:51
Post #3

####!111
**************
Group: Металариец
Posts: 4,012
Releases: 127
From: The Mountain Of DOOM
On Forums: 12 years 7 months
Thanks: 5578 time(s)
Russian Federation


Неплохой осенний фоновый думец, но хуковых моментов в сравнении с их же Devoid of Illusions не хватает. До Cold Insight тоже не дотягивает
Go to the top of the page
  Insert nick Quick quote
+Quote Post
post Oct 8 2019, 15:40:40
Post #4

Шесть Литров
******
Group: Металариец
Posts: 695
Releases: 10
On Forums: 11 years 4 months
Thanks: 162 time(s)
Germany


please, re-upload.
Go to the top of the page
  Insert nick Quick quote
+Quote Post
post Oct 8 2019, 16:01:01
Post #5

Group Icon
Group: S-moderation team
Posts: 15,559
Releases: 1440
From: Zagreb
On Forums: 9 years 3 months
Thanks: 69159 time(s)
Croatia


Register


Go to the top of the page
  Insert nick Quick quote
+Quote Post
post Oct 10 2019, 21:45:32
Post #6

Правь статус, ####!111
**************
Group: Металариец
Posts: 2,119
Releases: 0
From: Харьков
On Forums: 10 years 8 months
Thanks: 976 time(s)
Ukraine


Обложка симпатичная.
Go to the top of the page
  Insert nick Quick quote
+Quote Post
post Nov 1 2019, 19:20:32
Post #7

Восемь Литров
********
Group: Металариец
Posts: 842
Releases: 0
From: Somewhere along nowhere
On Forums: 1 year 9 months
Thanks: 701 time(s)
United States Minor Outlying Islands


ЦИТАТА(Ghostb @ Oct 10 2019, 22:45:32) *
Обложка симпатичная.

И не только...
Вот ведь интересный материал преподнесли итальянцы и в этот раз.
Только недавно познакомился с коллективом по их дебютнику, а тут оказывается и свеженькое подоспело и ещё не успело остыть.
И мне очень нравится этот альбом, я бы сказал, он лучше уже тем, что на нем мне слышится больше таких черт, которые я бы назвал именно Echo'вские: теплая воздушная легкость и хореографическая пластичность каждого звука, проработанность композиций (хоть и на Devoid of Illusions
не сказать, что было плохо), при этом они не изменили принципам хмурого стиля именуемого дум металлом, скорее расширили рамки. Кроме того, тут, мне кажется, уже проявлен, в большей степени, собственный почерк группы, отличающий её от коллег по цеху, а ближайшие ассоциации смещаются от коллективов северных широт в сторону южных, а именно их земляков November.
И наконец, вместо того, чтоб слушать новый релиз от таких знакомых, но набивших оскомину November's doom, откровенно говоря, наперед предвкушая, если не облом, то скуку, решил последовать за молодежью. На мой вкус, они не подвели.
Более всего понравилась Blind Snow, но и остальные 6 на отлично, ни одна не лишняя, все хороши и к месту, альбом слушается целостно.
Мои рекомендации


Thanks:
Go to the top of the page
  Insert nick Quick quote
+Quote Post

Reply to this topicStart new topic
1 User(s) are reading this topic (1 Guests and 0 Anonymous Users)
0 Members:

 



- Lo-Fi Version Support form
Copyrights and abuse reports form
Time is now: 30th May 2020 - 12:18:55