Welcome Guest ( Log In | Register )

> Правила / Rules

Тут только для чтения лежат низкобитрейтные (<192kbps) релизы, для которых есть аналоги в высокобитрейтных форумах.

Here goes (and stand in read only mode) low bitrate releases (<192kbps) which were already replaced by high bitrate releases in corresponding forums.

> Dold Vorde Ens Navn - Gjengangere I Hjertets Mørke [ep] (2019), Black Metal
post Sep 12 2019, 16:49:02
Post #1

Serial Uploader
Group Icon
Group: V.I.P
Posts: 37,016
Releases: 35198
From: Lithuania
On Forums: 11 years 8 months
Thanks: 414849 time(s)
Lithuania


(IMG:https://metalarea.org/images/audiocovers/2019_Sep/acov_tid327314_thumb.jpg)

*Artist: Dold Vorde Ens Navn
*Album: Gjengangere I Hjertets Mørke [ep]
*Year: 2019
*Genre: Black Metal
*Country: Norway (IMG:https://metalarea.org/forum/style_images/flags/Norway.png)
*Format: mp3@CBR320kbps
*Size: 47MB

Tracklist:
01. Den Ensomme Død
02. Drukkenskapens Kirkegård
03. Vitnesbyrd
04. Blodets Hvisken
******************************
Total playing time: 20:46



(IMG:https://metalarea.org/images/youtube.png)

Technical info
(IMG:https://metalarea.org/images/spectrogram/2019_Sep/c8b133dfef4d58b10165ba8fd438c28e.png)
Input File: 02. Drukkenskapens Kirkegård.mp3
Channels : 2
Sample Rate : 44100
Precision : 16-bit
Duration : 00:04:28.97 = 11861753 samples = 20173 CDDA sectors
File Size : 10.8M
Bit Rate : 321k
Sample Encoding: MPEG audio (layer I, II or III)
Comments :
Title=Drukkenskapens Kirkegård
Artist=Dold Vorde Ens Navn
Album=Gjengangere i hjertets mørke
Tracknumber=2/4
Year=2019
Genre=9
Discnumber=1/1



Register


Go to the top of the page
  Insert nick Quick quote
+Quote Post
 
Start new topic
Replies (1 - 1)
post Sep 13 2019, 10:44:58
Post #2

Маньяк
**********
Group: Металариец
Posts: 1,138
Releases: 37
From: великий город Питер
On Forums: 14 years 2 months
Thanks: 1933 time(s)
Russian Federation


приблэкованный трэш точнее будет....


Thanks:
(1) DarkHorde,
Go to the top of the page
  Insert nick Quick quote
+Quote Post

Причина закрытия (DarkHorde 14-09-2019): Dold Vorde Ens Navn - Gjengangere I Hjertets Mørke [ep] (2019)
Closed TopicStart new topic
1 User(s) are reading this topic (1 Guests and 0 Anonymous Users)
0 Members:

 



- Lo-Fi Version Support form
Copyrights and abuse reports form
Time is now: 24th February 2020 - 04:05:00