Welcome Guest ( Log In | Register )

> И неформату есть предел.

Рэп/хип-хоп/шансон/поп удаляются. Для них есть свои порталы.

 
Reply to this topicStart new topic
> Removed From This Life - I W Godzinę Śmierci Naszej, Amen (2019), Dark Ambient
post Sep 13 2019, 00:16:00
Post #1

Литр
*
Group: Подсевший
Posts: 79
Releases: 10
On Forums: 12 years 4 months
Thanks: 388 time(s)
Poland


(IMG:https://metalarea.org/images/audiocovers/2019_Sep/acov_tid327329_thumb.jpg)

*Artist: Removed From This Life
*Album: I W Godzinę Śmierci Naszej, Amen
*Year: 2019
*Genre: Dark Ambient
*Country: Poland (IMG:https://metalarea.org/forum/style_images/flags/Poland.png)
*Format: mp3@CBR320kbps
*Size: 148MB

Tracklist:
1.Ave Maria 10:23
2.End of The Universal Life 08:49
3.Everlasting Home 08:58
4.Hope that Dries Out 11:25
5.Crushed Emotions 09:46
6.Bądź Pozdrowiona 09:18
******************************
Total playing time: 58:39



Extended info
Zacznijmy od tego, że zapisany w tej płycie przekaz, nie jest jednoznaczny.

Z jednej strony święte Chrześcijańskie symbole, krzyż na środku okładki. Maryja Panna zawsze Dziewica. To fakt, jest to naturalnie wpisane w tę płytę. Nikt nie ma wątpliwości. Czy te religijne obrazy nie mają jednak czegoś chronić? Chronić zawartości, coś jak swoisty amulet. Czy może zostały umieszczone, bo autor sam do końca nie jest pewien. Może szuka i błądzi, pamiętając jedynie o tym jak go wychowano. Demony przeszłości nadgryzające wpojone kiedyś wartości. Czy kanony zachowań.

Płyta pt: „I W Godzinę Śmierci Naszej, Amen” lubelskiego projektu: Removed From this Life, rozpoczyna grę na Polskiej scenie Dark Ambient. Co daje nam ta muzyka? Pierwszy utwór jawi się lekko przesterowaną gitarą, zupełnie jakby została wzięta z ultra Raw’owej Black Metalowej ścieżki. Na drugim planie, delikatne Pady stawiające muzyce kontrast. To tak, jakby ukryte piękno chciało wydostać się i zamanifestować, jednak surowa skała jest nie do przebicia. Ten styl tworzenia jest charakterystyczną wartością tej płyty. Następne utwory zawierają solidną wcześniejszą podstawę, lecz z każdym razem inny rodzaj piękna i inny rodzaj surowości.

Obecny także Chorał Gregoriański jest zaadaptowany do stylu tej płyty. Nie jest na siłę dodany żeby za twórcę zrobił całą robotę. A tej jest dużo i jest trudna, bo jak łączyć owy chorał z dźwiękami fabryki czy mowy ludzi siedzących w barze. Wreszcie niewinne, słodkie dzieci, wyrażające po prostu radość i niczym jeszcze nie zmącone życie. Myślałem, że nie będę zdziwiony słuchając kolejnej dark ambienowej płyty, jednak ten twórca przypomina mi stare płyty Petera Broderick’a. Jest senny klimat, jednak bez obaw. Nie jest to 80 minutowy Steve Roach, przy którym doskonal się śpi.

Ostatni utwór jest kulminacją wcześniejszych i jest to zdecydowanie hymn. Tylko hymn dla kogo, czego? Znamy przecież ten rodzaj stosowanej metody, jak w przypadku wielu twórców. Projekty takie jak: Yhdarl i płyta: Ave Maria. Czy Oremus, Stabat Mater, Baptism, Golgota i inne stosujące święte nazewnictwo.

Nie jestem typem recenzenta, który opisze i prześwietli każdy track do znudzenia. Przekazując Tobie opisy i odczucia, związane z muzyką, chciałbym raczej powiedzieć co zostaje Ci do samodzielnego odkrycia i obserwacji. Pozostań chwilę i poobserwuj zachodzące właśnie zjawisko w postaci odtwarzanego dźwięku.

Płyta ukazała się 27.06.2019 w nowym enigmatycznym labelu Depressive Black Ambient. Co dalej, pokaże czas.


Technical info
(IMG:https://metalarea.org/images/spectrogram/2019_Sep/bb0e434773f1b076e0f91388187703c0.png)
Input File: Depressive Black Ambient - DBA-black-001- Removed From this Life - I W Godzinę Śmierci Naszej, Amen (2019) - 01 Ave Maria.mp3
Channels : 2
Sample Rate : 44100
Precision : 16-bit
Duration : 00:10:23.63 = 27502039 samples = 46772.2 CDDA sectors
File Size : 25.2M
Bit Rate : 323k
Sample Encoding: MPEG audio (layer I, II or III)
Comments :
Title=Ave Maria
Artist=Depressive Black Ambient
Album=DBA-black-001: Removed From this Life - I W Godzinę Śmierci Naszej, Amen (2019)
Tracknumber=1
Year=2019



Register


Thanks:
(1) Olethros,
Go to the top of the page
  Insert nick Quick quote
+Quote Post

Reply to this topicStart new topic
1 User(s) are reading this topic (1 Guests and 0 Anonymous Users)
0 Members:

 



- Lo-Fi Version Support form
Copyrights and abuse reports form
Time is now: 21st September 2019 - 06:09:59