Welcome Guest ( Log In | Register )

> И неформату есть предел.

Рэп/хип-хоп/шансон/поп удаляются. Для них есть свои порталы.

> The 69 Eyes - West End (2019), Gothic Metal/Rock (D17)
post Sep 13 2019, 09:53:32
Post #1

MDM-Thrash Metal
**************
Group: Металариец
Posts: 8,705
Releases: 606
From: Одесса
On Forums: 12 years 1 month
Thanks: 17448 time(s)
Ukraine


(IMG:http://metalarea.org/images/audiocovers/2019_Sep/acov_tid327348_thumb.png)

*Artist: The 69 Eyes
*Album: West End
*Year: 2019
*Genre: Gothic Metal/Rock
*Country: Finland (IMG:http://metalarea.org/forum/style_images/flags/Finland.png)
*Format: mp3@CBR320kbps
*Size: 112MB

Tracklist:
01 Two Horns Up
02 27 & Done
03 Black Orchid
04 Change
05 Burn Witch Burn
06 Cheyenna
07 The Last House On The Left
08 Death & Desire
09 Outsiders
10 Be Here Now
11 Hell Has No Mercy
******************************
Total playing time: 48:38

(IMG:http://metalarea.org/images/youtube.png)

(IMG:http://metalarea.org/images/youtube.png)
(IMG:http://metalarea.org/images/youtube.png)


Technical info
(IMG:http://metalarea.org/images/spectrogram/2019_Sep/a283296ca95d569ff2acc1e8e3b3034f.png)
Input File: 2 27 & Done.mp3
Channels : 2
Sample Rate : 44100
Precision : 16-bit
Duration : 00:04:17.40 = 11351252 samples = 19304.9 CDDA sectors
File Size : 10.4M
Bit Rate : 322k
Sample Encoding: MPEG audio (layer I, II or III)
Comments :
Title=27 & Done
Artist=The 69 Eyes
Album=West End
Tracknumber=2/11
Year=2019
Discnumber=1/1



Register


Go to the top of the page
  Insert nick Quick quote
+Quote Post
 
Start new topic
Replies (1 - 6)
post Sep 14 2019, 19:55:39
Post #2

Мегаманьяк
***********
Group: Металариец
Posts: 1,542
Releases: 0
From: Харьков
On Forums: 9 years 11 months
Thanks: 595 time(s)
Ukraine


Интересно, есть ли смысл начинать их слушать в 2019? (IMG:style_emoticons/default/crazy.gif)
Go to the top of the page
  Insert nick Quick quote
+Quote Post
post Sep 15 2019, 06:43:51
Post #3

poison creosote
*******
Group: Металариец
Posts: 748
Releases: 1
On Forums: 2 years 3 months
Thanks: 385 time(s)
Iceland


Да вполне нормальный альбом, пафосной готятинки значительно поубавилось, сместившись в сторону классического олдового готик-рока, вокал у Юрке чуть похуже стал, но в целом приятное музло до сих пор делают. Обложка, конечно, фэйспалм.
Go to the top of the page
  Insert nick Quick quote
+Quote Post
post Sep 15 2019, 13:09:37
Post #4

Правь статус, ####!111
**************
Group: Металариец
Posts: 2,271
Releases: 202
On Forums: 12 years 9 months
Thanks: 5018 time(s)
Unknown


Новое видео совместно с Dani Filth'ом.
Go to the top of the page
  Insert nick Quick quote
+Quote Post
post Yesterday, 16:06:13
Post #5

Литр
*
Group: Подсевший
Posts: 86
Releases: 0
From: Лыткарино
On Forums: 4 months 1 week
Thanks: 22 time(s)
Russian Federation


Достойный альбом получился)! Потому как после предыдущего казалось, что всё, и у этих молодцев подиссякла композиторская жилка и осталась надежда только на сольное творчество Юрки, ан нет, на этот раз выдали красивый и драйвовый альбом в духе своего периода 2004-2007, так что пока молодцы остаются молодцами).
Go to the top of the page
  Insert nick Quick quote
+Quote Post
post Yesterday, 18:09:16
Post #6

Ледоруб
**************
Group: Металариец
Posts: 22,948
Releases: 0
From: Санкт-Петербург
On Forums: 10 years 1 week
Thanks: 7654 time(s)
Russian Federation


Мнусь качать.


Thanks:
(1) Ghostb,
Go to the top of the page
  Insert nick Quick quote
+Quote Post
post Yesterday, 18:51:36
Post #7

Два Литра
**
Group: Завсегдатай
Posts: 152
Releases: 0
On Forums: 10 years 10 months
Thanks: 60 time(s)
Russian Federation


FLAC tracks
Register
Go to the top of the page
  Insert nick Quick quote
+Quote Post

Reply to this topicStart new topic
1 User(s) are reading this topic (1 Guests and 0 Anonymous Users)
0 Members:

 



- Lo-Fi Version Support form
Copyrights and abuse reports form
Time is now: 21st September 2019 - 05:54:04