Welcome Guest ( Log In | Register )

> И неформату есть предел.

Рэп/хип-хоп/шансон/поп удаляются. Для них есть свои порталы.

 
Reply to this topicStart new topic
> Cold - The Things We Can't Stop (2019), Alternative Rock/Post-Grunge/Hard Rock (D7)
post Sep 13 2019, 10:07:19
Post #1

MDM-Thrash Metal
**************
Group: Металариец
Posts: 8,705
Releases: 606
From: Одесса
On Forums: 12 years 1 month
Thanks: 17446 time(s)
Ukraine


(IMG:http://metalarea.org/images/audiocovers/2019_Sep/acov_tid327349_thumb.jpg)

*Artist: Cold
*Album: The Things We Can't Stop
*Year: 2019
*Genre: Alternative Rock/Post-Grunge/Hard Rock
*Country: United States (IMG:http://metalarea.org/forum/style_images/flags/United%20States.png)
*Format: mp3@CBR320kbps
*Size: 107MB

Tracklist:
01. Intro
02. Shine
03. Snowblind
04. The Devil We Know
05. Run
06. Better Human
07. Without You
08. Quiet Now
09. The One That Got Away
10. Systems Fail
11. Beautiful Life
12. We All Love
******************************
Total playing time: 45:50


(IMG:http://metalarea.org/images/youtube.png)
(IMG:http://metalarea.org/images/youtube.png)
(IMG:http://metalarea.org/images/youtube.png)
(IMG:http://metalarea.org/images/youtube.png)

Technical info
(IMG:http://metalarea.org/images/spectrogram/2019_Sep/ba51d8c260e67a3ecf3fb28a9a7ebb37.png)
Input File: 02. Shine.mp3
Channels : 2
Sample Rate : 44100
Precision : 16-bit
Duration : 00:04:40.18 = 12355982 samples = 21013.6 CDDA sectors
File Size : 11.5M
Bit Rate : 328k
Sample Encoding: MPEG audio (layer I, II or III)
Comments :
Title=Shine
Artist=Cold
Album=The Things We Can't Stop
Tracknumber=02
Year=2019
Genre=Rock
Discnumber=1



Register


Thanks:
(1) Olethros,
Go to the top of the page
  Insert nick Quick quote
+Quote Post

Reply to this topicStart new topic
1 User(s) are reading this topic (1 Guests and 0 Anonymous Users)
0 Members:

 



- Lo-Fi Version Support form
Copyrights and abuse reports form
Time is now: 21st September 2019 - 05:35:56