Welcome Guest ( Log In | Register )

> Правила / Rules

Тут только для чтения лежат низкобитрейтные (<192kbps) релизы, для которых есть аналоги в высокобитрейтных форумах.

Here goes (and stand in read only mode) low bitrate releases (<192kbps) which were already replaced by high bitrate releases in corresponding forums.

> Weeping Sores - False Confession (2019), Death/Doom Metal
post Sep 13 2019, 11:51:38
Post #1

Правь статус, ####!111
**************
Group: Металариец
Posts: 2,755
Releases: 8
From: Dnipro
On Forums: 11 years 4 months
Thanks: 860 time(s)
Ukraine


(IMG:http://metalarea.org/images/audiocovers/2019_Sep/acov_tid327351_thumb.jpg)

*Artist: Weeping Sores
*Album: False Confession
*Year: 2019
*Genre: Death/Doom Metal
*Country: United States (IMG:http://metalarea.org/forum/style_images/flags/United%20States.png)
*Format: mp3@CBR192kbps
*Size: 78MB

Tracklist:
01. Scars Whispering Secret Tongues 10:41
02. Song of Embers 09:05
03. Transfiguration of Flesh into Dreams 09:09
04. The Leech Called Shame 07:49
05. Valediction Prayer 10:08
06. Sink Beneath the Waves 09:18
******************************
Total playing time: 56:10

Extended info
Label:I, Voidhanger Records


Technical info
(IMG:http://metalarea.org/images/spectrogram/2019_Sep/7b9aa8a7cbe7c5b9983bfe4713b8457e.png)
Input File: 02. Song Of Embers.mp3
Channels : 2
Sample Rate : 44100
Precision : 16-bit
Duration : 00:09:05.75 = 24067751 samples = 40931.5 CDDA sectors
File Size : 13.3M
Bit Rate : 194k
Sample Encoding: MPEG audio (layer I, II or III)
Comments :
Title=Song Of Embers
Artist=Weeping Sores
Album=False Confession
Year=2019
Genre=Doom/Death Metal



Register


Go to the top of the page
  Insert nick Quick quote
+Quote Post
 
Start new topic
Replies (1 - 5)
post Sep 14 2019, 11:01:18
Post #2

\m/
Group Icon
Group: S-moderation team
Posts: 7,708
Releases: 19
From: Петропавловск-Камчатский
On Forums: 10 years 5 months
Thanks: 7299 time(s)
Russian Federation


ЦИТАТА(isvili @ 14th September 2019 - 21:39:05) *
Ну и что тут не так по вашему? По чему заперли в Find Area?

Как будто не знаешь? Ссылка то косячная была, сам же и поправил
Go to the top of the page
  Insert nick Quick quote
+Quote Post
post Sep 14 2019, 16:03:45
Post #3

Правь статус, ####!111
**************
Group: Металариец
Posts: 2,755
Releases: 8
From: Dnipro
On Forums: 11 years 4 months
Thanks: 860 time(s)
Ukraine


ЦИТАТА(DarkHorde @ Sep 14 2019, 13:01:18) *
Как будто не знаешь? Ссылка то косячная была, сам же и поправил

Ну если бы знал, то не спрашивал бы, это же логично.
Просто заново все пересмотрел и ту же ссылку вставил, только немного по другому.
Go to the top of the page
  Insert nick Quick quote
+Quote Post
post Sep 15 2019, 12:59:25
Post #4

Crush! Kill! Destroy!
**************
Group: Металариец
Posts: 5,164
Releases: 15
From: Kaliningrad
On Forums: 12 years 2 weeks
Thanks: 4731 time(s)
Russian Federation


Офигенная тема! Товарищи из Pyrrhon могут не только играть чушь, но и творить реальные ништяки!


Thanks:
Go to the top of the page
  Insert nick Quick quote
+Quote Post
post Sep 16 2019, 12:16:49
Post #5

Правь статус, ####!111
**************
Group: Металариец
Posts: 2,755
Releases: 8
From: Dnipro
On Forums: 11 years 4 months
Thanks: 860 time(s)
Ukraine


Тут еще и скрипки чумовые.


Thanks:
(1) Ghostb,
Go to the top of the page
  Insert nick Quick quote
+Quote Post
post Sep 17 2019, 13:40:31
Post #6

Мегаманьяк
***********
Group: Металариец
Posts: 1,760
Releases: 0
From: Харьков
On Forums: 10 years 2 months
Thanks: 737 time(s)
Ukraine


Послушаю, раз хвалите)
Go to the top of the page
  Insert nick Quick quote
+Quote Post

Причина закрытия (Абигор 17-09-2019): Weeping Sores - False Confession (2019)
Closed TopicStart new topic
1 User(s) are reading this topic (1 Guests and 0 Anonymous Users)
0 Members:

 



- Lo-Fi Version Support form
Copyrights and abuse reports form
Time is now: 6th December 2019 - 09:46:56