Welcome Guest ( Log In | Register )

> И неформату есть предел.

Рэп/хип-хоп/шансон/поп удаляются. Для них есть свои порталы.

 
Reply to this topicStart new topic
> Disciple - Love Letter Kill Shot (2019), Nu-Metal (D)
post Sep 13 2019, 17:11:25
Post #1

Каждое ваше "Спасибо" помогает мне понять, что я делаю новости не напрасно.
***********
Group: Металариец
Posts: 1,933
Releases: 1692
From: Одесса
On Forums: 11 years 3 months
Thanks: 14510 time(s)
Ukraine


(IMG:http://metalarea.org/images/audiocovers/2019_Sep/acov_tid327373_thumb.jpg)

*Artist: Disciple
*Album: Love Letter Kill Shot
*Year: 2019
*Genre: Nu-Metal
*Country: United States (IMG:http://metalarea.org/forum/style_images/flags/United%20States.png)
*Format: mp3@CBR320kbps
*Size: 111MB

Tracklist:
1.Cuff the Criminal
2.Reanimate
3.Wake Up
4.Panic Room
5.Play to Win
6.Fire Away
7.Misery
8.Chemical Wisdom
9.Never Too Late
10.Touch of Pain
11.Walk With Me
12.Best Thing Ever
******************************
Total playing time: 46:34

(IMG:http://metalarea.org/images/youtube.png)

Extended info
Line - up:
Kevin Young - Vocals (lead), Guitars (acoustic), Bass (ex-C.I.A., ex-Remnant, ex-The Anchormen)
Josiah Prince - Guitars (rhythm) (ex-Philmont)
Joey West - Drums (After Edmund)

Guest/Session:
Andrew Schwab - Vocals (Track 4)

(IMG:https://www.metal-archives.com/images/2/5/0/2/25024_photo.jpg?2809)


Technical info
(IMG:http://metalarea.org/images/spectrogram/2019_Sep/29b847d62fd9348c6fac52cd8c724fc6.png)
Input File: 01 Cuff the Criminal.mp3
Channels : 2
Sample Rate : 44100
Precision : 16-bit
Duration : 00:03:32.47 = 9369839 samples = 15935.1 CDDA sectors
File Size : 8.50M
Bit Rate : 320k
Sample Encoding: MPEG audio (layer I, II or III)
Comments :
Title=Cuff the Criminal
Artist=Disciple
Album=Love Letter Kill Shot
Tracknumber=1
Year=2019
Genre=Nu-Metal



Register


Thanks:
(1) Olethros,
Go to the top of the page
  Insert nick Quick quote
+Quote Post

Reply to this topicStart new topic
1 User(s) are reading this topic (1 Guests and 0 Anonymous Users)
0 Members:

 



- Lo-Fi Version Support form
Copyrights and abuse reports form
Time is now: 21st September 2019 - 05:37:57