Welcome Guest ( Log In | Register )

> И неформату есть предел.

Рэп/хип-хоп/шансон/поп удаляются. Для них есть свои порталы.

> Black Rain - Dying Breed (2019), Glam Rock (D5)
post Sep 13 2019, 18:06:19
Post #1

Каждое ваше "Спасибо" помогает мне понять, что я делаю новости не напрасно.
***********
Group: Металариец
Posts: 1,937
Releases: 1696
From: Одесса
On Forums: 11 years 3 months
Thanks: 14548 time(s)
Ukraine


(IMG:http://metalarea.org/images/audiocovers/2019_Sep/acov_tid327375_thumb.jpg)

*Artist: Black Rain
*Album: Dying Breed
*Year: 2019
*Genre: Glam Rock
*Country: France (IMG:http://metalarea.org/forum/style_images/flags/France.png)
*Format: mp3@CBR320kbps
*Size: 111MB

Tracklist:
1.Dying Breed 03:50
2.Hellfire 04:05
3.Blast Me Up 03:40
4.Nobody Can Change 04:19
5.Like Me 03:44
6.All Angels Have Gone 04:11
7.We Are the Mayhem 03:31
8.Rock Radio 03:34
9.Public Enemy 03:58
10.A Call from the Inside 04:24
11.Jenny Jen 03:25
12.Ça plane pour moi 03:13
******************************
Total playing time: 45:54



Extended info
Line - up:

Max 2 - Guitars
Swan - Vocals, Guitars
Heinrich - Bass
Frank F. Drums

(IMG:https://www.metal-archives.com/images/2/1/7/6/21769_photo.jpg?2333)


Technical info
(IMG:http://metalarea.org/images/spectrogram/2019_Sep/8545f9083e39e5709eeeaab9f28d84b2.png)
Input File: 01. Dying Breed.mp3
Channels : 2
Sample Rate : 44100
Precision : 16-bit
Duration : 00:03:50.76 = 10176296 samples = 17306.6 CDDA sectors
File Size : 9.30M
Bit Rate : 323k
Sample Encoding: MPEG audio (layer I, II or III)
Comments :
Title=Dying Breed
Artist=Black Rain
Album=Dying Breed
Tracknumber=1
Year=2019
Genre=Glam Rock



Register


Thanks:
Go to the top of the page
  Insert nick Quick quote
+Quote Post
 
Start new topic
Replies (1 - 3)
post Sep 14 2019, 20:44:56
Post #2
BAN
RO till
Sep 29 2019, 00:15:53



(IMG:style_emoticons/default/1488.gif)

Go to the top of the page
  Insert nick Quick quote
+Quote Post
post Sep 14 2019, 21:24:11
Post #3
BAN
Banned till
Oct 6 2019, 16:10:14



Black rain это хорошее индастриал техно. А это какой-то Токио хотел


Thanks:
Go to the top of the page
  Insert nick Quick quote
+Quote Post
post Sep 14 2019, 21:30:13
Post #4
BAN
RO till
Sep 29 2019, 00:15:53



QUOTE(adeptus_custodes @ Sep 14 2019, 22:24:11) *
Black rain это хорошее индастриал техно. А это какой-то Токио хотел

quite similar indeed
Go to the top of the page
  Insert nick Quick quote
+Quote Post

Reply to this topicStart new topic
1 User(s) are reading this topic (1 Guests and 0 Anonymous Users)
0 Members:

 



- Lo-Fi Version Support form
Copyrights and abuse reports form
Time is now: 21st September 2019 - 22:29:10